<?xml version="1.0" standalone="no"?>
<!DOCTYPE svg PUBLIC "-//W3C//DTD SVG 1.1//EN" "http://www.w3.org/Graphics/SVG/1.1/DTD/svg11.dtd" >
<svg xmlns="http://www.w3.org/2000/svg" xmlns:xlink="http://www.w3.org/1999/xlink" version="1.1">
<metadata>
Created by FontForge 20170731 at Fri Feb  3 12:11:08 2006
 By Aleksey,,,
Copyright 2004, ALDI SUED
</metadata>
<defs>
<font id="ALDISUEDOffice-Bold" horiz-adv-x="626" >
  <font-face 
    font-family="ALDI SUED Office"
    font-weight="700"
    font-stretch="normal"
    units-per-em="1000"
    panose-1="2 0 8 6 0 0 0 2 0 4"
    ascent="770"
    descent="-230"
    x-height="528"
    cap-height="667"
    bbox="-107 -280 1488 1015"
    underline-thickness="50"
    underline-position="-150"
    unicode-range="U+0020-F6C3"
  />
<missing-glyph horiz-adv-x="458" 
d="M400 8v496h-342v-496h342zM50 512h358v-512h-358v512z" />
    <glyph glyph-name=".notdef" horiz-adv-x="458" 
d="M400 8v496h-342v-496h342zM50 512h358v-512h-358v512z" />
    <glyph glyph-name=".null" horiz-adv-x="0" 
 />
    <glyph glyph-name="nonmarkingreturn" horiz-adv-x="226" 
 />
    <glyph glyph-name="space" unicode=" " horiz-adv-x="226" 
 />
    <glyph glyph-name="exclam" unicode="!" horiz-adv-x="309" 
d="M231 238h-153l-23 429h199zM252 86q0 -41 -28 -69.5t-69 -28.5t-69.5 28.5t-28.5 69.5t28.5 69t69.5 28t69 -28t28 -69z" />
    <glyph glyph-name="quotedbl" unicode="&#x22;" horiz-adv-x="432" 
d="M362 412h-96l-18 255h133zM165 412h-95l-19 255h133z" />
    <glyph glyph-name="numbersign" unicode="#" horiz-adv-x="589" 
d="M582 407h-91l-26 -121h91l-24 -105h-88l-37 -181h-129l37 181h-112l-37 -181h-129l37 181h-89l24 105h88l25 121h-89l24 105h88l32 155h129l-32 -155h112l32 155h128l-32 -155h90zM250 407l-25 -121h112l26 121h-113z" />
    <glyph glyph-name="dollar" unicode="$" horiz-adv-x="550" 
d="M501 204q0 -81 -43 -129t-134 -62v-83h-113v78q-55 2 -99 10.5t-74 19.5l20 115q30 -10 70.5 -19.5t75.5 -9.5q42 0 71 15t29 51q0 22 -19.5 40t-48 35t-62.5 35.5t-62.5 42t-48 55t-19.5 74.5q0 75 43 122t124 58v76h113v-71q45 -3 81 -9.5t68 -14.5l-21 -113
q-27 8 -62 15t-72 7q-39 0 -64 -15t-25 -44q0 -23 20 -40.5t50.5 -34t65.5 -34.5t65.5 -41.5t50.5 -54.5t20 -74z" />
    <glyph glyph-name="percent" unicode="%" horiz-adv-x="1087" 
d="M1054 227q0 -126 -44 -185.5t-150 -59.5q-53 0 -89.5 14.5t-59.5 45t-33 76.5t-10 109q0 62 10 108t33 76t59.5 45t89.5 15q106 0 150 -60t44 -184zM417 -10h-126l380 690h125zM419 445q0 -126 -43.5 -186t-149.5 -60q-53 0 -89.5 15t-59.5 45t-33 76.5t-10 109.5
q0 62 10 107.5t33 75.5t59.5 45t89.5 15q106 0 149.5 -59.5t43.5 -183.5zM923 227q0 72 -12.5 113t-50.5 41t-50 -41t-12 -113q0 -74 12 -114.5t50 -40.5t50.5 40.5t12.5 114.5zM288 445q0 72 -12 112.5t-50 40.5t-50.5 -40.5t-12.5 -112.5q0 -74 12.5 -115t50.5 -41t50 41
t12 115z" />
    <glyph glyph-name="ampersand" unicode="&#x26;" horiz-adv-x="670" 
d="M494 0l-42 48q-37 -28 -82 -43.5t-114 -15.5q-49 0 -91.5 12t-74 36.5t-49.5 63t-18 91.5q0 68 34 114t89 73q-28 30 -48 64.5t-20 81.5q0 76 54.5 115t148.5 39q90 0 145 -36.5t55 -107.5q0 -66 -34.5 -110t-90.5 -75l107 -121q7 9 12.5 21.5t10 26.5t7 28t2.5 25h132
q-2 -29 -9.5 -57.5t-18.5 -54t-23.5 -46.5t-25.5 -36l123 -136h-179zM347 520q0 19 -14 37.5t-53 18.5q-23 0 -41.5 -11t-18.5 -42q0 -19 10.5 -34t31.5 -39l14 -16q12 6 24.5 14.5t23 19.5t17 24t6.5 28zM224 295q-26 -13 -39 -38t-13 -55q0 -46 27.5 -76t75.5 -30
q28 0 54.5 9.5t40.5 28.5z" />
    <glyph glyph-name="quotesingle" unicode="'" horiz-adv-x="236" 
d="M165 412h-95l-19 255h133z" />
    <glyph glyph-name="parenleft" unicode="(" horiz-adv-x="377" 
d="M270 -180q-127 115 -180.5 233.5t-53.5 234.5q0 58 13 116.5t41 117t72.5 117t107.5 116.5l94 -85q-69 -76 -112 -174t-43 -208t43 -208.5t112 -174.5z" />
    <glyph glyph-name="parenright" unicode=")" horiz-adv-x="377" 
d="M342 288q0 -116 -54 -234.5t-181 -233.5l-94 85q69 76 112 174.5t43 208.5t-43 208t-112 174l94 85q127 -116 181 -233.5t54 -233.5z" />
    <glyph glyph-name="asterisk" unicode="*" horiz-adv-x="438" 
d="M304 465l79 -92l-97 -69l-67 100l-68 -100l-96 69l77 92l-103 27l35 108l101 -39l-6 118h120l-8 -118l103 39l35 -108z" />
    <glyph glyph-name="plus" unicode="+" horiz-adv-x="550" 
d="M344 270v-181h-139v181h-172v121h172v181h139v-181h172v-121h-172z" />
    <glyph glyph-name="comma" unicode="," horiz-adv-x="263" 
d="M223 74q0 -30 -14 -60.5t-32 -61.5q-17 -30 -37.5 -59t-40.5 -57l-69 41q7 12 15.5 26t15.5 28t11.5 28t4.5 26q0 11 -5 21t-11.5 22t-11.5 26t-5 32q0 38 25.5 62t60.5 24q43 0 68 -28t25 -70z" />
    <glyph glyph-name="hyphen" unicode="-" horiz-adv-x="382" 
d="M47 220v126h288v-126h-288z" />
    <glyph glyph-name="hyphen" unicode="&#x2010;" horiz-adv-x="382" 
d="M47 220v126h288v-126h-288z" />
    <glyph glyph-name="hyphen" unicode="&#xad;" horiz-adv-x="382" 
d="M47 220v126h288v-126h-288z" />
    <glyph glyph-name="period" unicode="." horiz-adv-x="271" 
d="M233 86q0 -41 -28 -69.5t-69 -28.5t-69.5 28.5t-28.5 69.5t28.5 69t69.5 28t69 -28t28 -69z" />
    <glyph glyph-name="slash" unicode="/" horiz-adv-x="430" 
d="M158 -20h-149l263 707h149z" />
    <glyph glyph-name="zero" unicode="0" horiz-adv-x="550" 
d="M521 334q0 -98 -16 -164.5t-47.5 -106.5t-77 -57t-105.5 -17t-105.5 17t-77 57t-47.5 106.5t-16 164.5t16 164t47.5 106t77 57t105.5 17t105.5 -17t77 -57t47.5 -106t16 -164zM348 334q0 122 -14.5 181t-58.5 59t-59 -58.5t-15 -181.5t15 -182t59 -59t58.5 58.5
t14.5 182.5z" />
    <glyph glyph-name="one" unicode="1" horiz-adv-x="550" 
d="M241 0v498l-120 -83l-71 101l220 151h140v-667h-169z" />
    <glyph glyph-name="two" unicode="2" horiz-adv-x="550" 
d="M43 0v99q37 40 82.5 85.5t86 92.5t68 94.5t27.5 90.5q0 48 -23.5 70.5t-67.5 22.5q-35 0 -72.5 -11.5t-60.5 -22.5l-44 103q16 8 39 17.5t51 17.5t59 13.5t64 5.5q109 0 168.5 -46.5t59.5 -134.5q0 -53 -21 -100.5t-55.5 -92.5t-77.5 -88t-88 -85h249v-131h-444z" />
    <glyph glyph-name="three" unicode="3" horiz-adv-x="550" 
d="M494 190q0 -54 -19 -92.5t-52.5 -62.5t-80.5 -35t-103 -11q-76 0 -129.5 11t-92.5 29l39 107q29 -14 67.5 -22.5t82.5 -8.5q24 0 45 4t36.5 14.5t24.5 29t9 47.5q0 30 -9.5 48t-30.5 27t-53.5 12t-77.5 3v105q45 0 75 4.5t48.5 15.5t26 29t7.5 46q0 22 -8.5 36t-22.5 22
t-31.5 11t-34.5 3q-20 0 -41 -3.5t-40 -8.5t-34.5 -11t-24.5 -10l-38 102q32 17 88.5 32t128.5 15q51 0 93.5 -10t73 -31t47.5 -53.5t17 -77.5q0 -34 -9.5 -59.5t-25 -44.5t-36 -32t-41.5 -21q27 -6 50 -18.5t40 -32t26.5 -46t9.5 -62.5z" />
    <glyph glyph-name="four" unicode="4" horiz-adv-x="550" 
d="M480 92v-92h-164v92h-288l-7 100l201 501l143 -70l-173 -416h128v127h160v-129h65v-113h-65z" />
    <glyph glyph-name="five" unicode="5" horiz-adv-x="550" 
d="M508 211q0 -61 -20 -103.5t-55.5 -68.5t-83.5 -38t-105 -12q-74 1 -127 13.5t-87 28.5l40 109q26 -13 64.5 -24t80.5 -11q24 0 45.5 4.5t38 16t26.5 32.5t10 54q0 55 -29 84t-77 29q-32 0 -61 -11t-40 -19l-72 22l40 350h386l-22 -123h-240l-13 -130q19 10 39.5 15
t51.5 5q47 0 85.5 -13.5t66.5 -41t43 -69.5t15 -99z" />
    <glyph glyph-name="six" unicode="6" horiz-adv-x="550" 
d="M522 223q0 -59 -19.5 -102.5t-53 -73t-77 -44t-91.5 -14.5t-93 12.5t-80.5 43.5t-56.5 83.5t-21 131.5q0 70 26 135t73.5 120.5t113 100t143.5 75.5l53 -108q-49 -21 -102.5 -60.5t-90.5 -99.5q18 5 38 10.5t46 5.5q45 0 80.5 -17.5t60 -47t38 -69t13.5 -82.5zM349 223
q0 65 -20 95.5t-52 30.5t-53.5 -30.5t-21.5 -95.5t23 -97.5t56 -32.5q32 0 50 32.5t18 97.5z" />
    <glyph glyph-name="seven" unicode="7" horiz-adv-x="550" 
d="M238 0h-180q11 21 28 55.5t37.5 76.5t43 89t44.5 93q51 107 109 230h-274l-22 123h475v-108z" />
    <glyph glyph-name="eight" unicode="8" horiz-adv-x="550" 
d="M520 183q0 -48 -17.5 -84t-50 -60.5t-78.5 -37t-102 -12.5q-115 0 -178 48.5t-63 145.5q0 31 8.5 56t24.5 45.5t37 37.5t47 31q-46 26 -72 59.5t-26 87.5q0 48 18.5 82t50 55t73 31t87.5 10q47 0 87.5 -9t70.5 -30t47 -54.5t17 -82.5q0 -53 -25.5 -90.5t-70.5 -63.5
q25 -14 46.5 -29.5t36.5 -35t23.5 -44t8.5 -56.5zM339 500q0 35 -15 54t-47 19q-31 0 -44.5 -19t-13.5 -52q0 -40 18.5 -64t49.5 -35q18 11 35 34t17 63zM348 179q0 25 -7.5 43t-20 31t-28 22t-31.5 15q-26 -14 -45 -39.5t-19 -71.5q0 -42 20 -64t57 -22t55.5 22t18.5 64z
" />
    <glyph glyph-name="nine" unicode="9" horiz-adv-x="550" 
d="M519 407q0 -71 -26 -135.5t-73 -120t-112.5 -100t-143.5 -75.5l-54 108q49 21 102.5 60.5t90.5 99.5q-17 -5 -36 -10.5t-43 -5.5q-46 0 -82.5 16.5t-62 46t-39.5 69t-14 84.5q0 58 19.5 102t53 73.5t77.5 44t92 14.5t93 -12.5t80.5 -43.5t56.5 -83.5t21 -131.5zM347 444
q0 65 -23 97.5t-56 32.5q-32 0 -51 -32.5t-19 -97.5t21 -95.5t53 -30.5t53.5 30.5t21.5 95.5z" />
    <glyph glyph-name="colon" unicode=":" horiz-adv-x="271" 
d="M231 418q0 -41 -27.5 -68.5t-67.5 -27.5t-68.5 27.5t-28.5 68.5t28.5 68.5t68.5 27.5t67.5 -27.5t27.5 -68.5zM231 84q0 -41 -27.5 -68.5t-67.5 -27.5t-68.5 27.5t-28.5 68.5q0 20 7.5 38t21 31t31 20.5t37.5 7.5q40 0 67.5 -28t27.5 -69z" />
    <glyph glyph-name="semicolon" unicode=";" horiz-adv-x="271" 
d="M231 418q0 -41 -27.5 -68.5t-67.5 -27.5t-68.5 27.5t-28.5 68.5t28.5 68.5t68.5 27.5t67.5 -27.5t27.5 -68.5zM226 74q0 -30 -14 -60.5t-32 -61.5q-17 -30 -37.5 -59t-40.5 -57l-68 41q7 12 15.5 26t15 28t11 28t4.5 26q0 11 -5 21t-11.5 22t-11.5 26t-5 32q0 38 26 62
t61 24q43 0 67.5 -28t24.5 -70z" />
    <glyph glyph-name="semicolon" unicode="&#x37e;" horiz-adv-x="271" 
d="M231 418q0 -41 -27.5 -68.5t-67.5 -27.5t-68.5 27.5t-28.5 68.5t28.5 68.5t68.5 27.5t67.5 -27.5t27.5 -68.5zM226 74q0 -30 -14 -60.5t-32 -61.5q-17 -30 -37.5 -59t-40.5 -57l-68 41q7 12 15.5 26t15 28t11 28t4.5 26q0 11 -5 21t-11.5 22t-11.5 26t-5 32q0 38 26 62
t61 24q43 0 67.5 -28t24.5 -70z" />
    <glyph glyph-name="less" unicode="&#x3c;" horiz-adv-x="550" 
d="M35 300v89l464 189v-122l-272 -111l272 -113v-122z" />
    <glyph glyph-name="equal" unicode="=" horiz-adv-x="550" 
d="M60 379v117h430v-117h-430zM60 165v117h430v-117h-430z" />
    <glyph glyph-name="greater" unicode="&#x3e;" horiz-adv-x="550" 
d="M50 110v122l272 111l-272 113v122l464 -190v-89z" />
    <glyph glyph-name="question" unicode="?" horiz-adv-x="445" 
d="M418 502q0 -37 -11.5 -63.5t-28.5 -47t-37 -37t-37.5 -33.5t-30.5 -36t-16 -45h-140q2 32 12 55t23.5 42t29 34.5t28 32.5t21 36.5t8.5 46.5q0 57 -62 57q-34 0 -67.5 -13.5t-53.5 -24.5l-49 113q13 7 33 17t45.5 19.5t56.5 16t66 6.5q40 0 77.5 -7.5t67 -27.5t47.5 -54
t18 -87zM285 84q0 -41 -28 -68t-68 -27t-68.5 27t-28.5 68t28.5 68.5t68.5 27.5t68 -27.5t28 -68.5z" />
    <glyph glyph-name="at" unicode="@" horiz-adv-x="926" 
d="M892 254q0 -87 -24 -140t-57 -82t-67.5 -38.5t-55.5 -9.5q-40 0 -78 17.5t-55 53.5q-19 -26 -53 -48.5t-75 -22.5q-29 0 -59 10t-55.5 36.5t-41.5 73t-16 119.5q0 68 15.5 113.5t40 72.5t55 38t59.5 11q41 0 69.5 -19.5t45.5 -38.5l8 49h100v-281q0 -36 9.5 -61.5
t39.5 -25.5q34 0 54 47t20 126q0 156 -76 239t-226 83q-71 0 -128.5 -24t-99 -68.5t-64 -107.5t-22.5 -141q0 -169 80.5 -259.5t245.5 -90.5q36 0 68 3.5t58.5 8t45.5 10t29 8.5l36 -93q-9 -4 -31 -11t-54 -13.5t-71 -11t-82 -4.5q-108 0 -191 31t-140 89t-86.5 141
t-29.5 187q0 97 32 179t89 142t136 94t172 34q102 0 182 -29t135 -84t84 -134t29 -178zM523 310q-4 6 -10.5 15t-15.5 17t-20.5 13.5t-26.5 5.5q-32 0 -46.5 -37t-14.5 -100q0 -66 14.5 -104.5t49.5 -38.5q26 0 43 18.5t27 37.5v173z" />
    <glyph glyph-name="A" unicode="A" 
d="M436 0l-29 102h-199l-29 -102h-173l204 667h208l202 -667h-184zM308 515l-75 -302h150z" />
    <glyph glyph-name="B" unicode="B" horiz-adv-x="596" 
d="M567 189q0 -51 -16.5 -86.5t-52.5 -58.5t-93.5 -33.5t-138.5 -10.5h-203v667h195q76 0 131.5 -7t91 -26t52.5 -53t17 -88q0 -33 -8 -57.5t-22.5 -42t-33.5 -28t-41 -15.5q25 -4 47 -13.5t38.5 -27.5t26.5 -47.5t10 -72.5zM376 475q0 48 -26.5 66.5t-82.5 18.5h-35v-170
h42q52 0 77 20t25 65zM393 203q0 47 -29.5 71t-95.5 24h-36v-191h37q65 0 94.5 22.5t29.5 73.5z" />
    <glyph glyph-name="C" unicode="C" horiz-adv-x="505" 
d="M484 20q-33 -14 -72.5 -23t-93.5 -9q-75 0 -128 19t-86.5 60.5t-49.5 107.5t-16 159q0 90 15 155.5t48 107.5t85 62t127 20q56 0 94 -9.5t68 -19.5l-33 -111q-23 8 -47 13.5t-51 5.5q-69 0 -100.5 -53.5t-31.5 -170.5q0 -106 30 -163.5t101 -57.5q28 0 54.5 6t52.5 16z
" />
    <glyph glyph-name="D" unicode="D" horiz-adv-x="611" 
d="M573 334q0 -77 -9 -131.5t-26.5 -92t-44.5 -59t-62.5 -33t-79.5 -15t-97 -3.5h-191v667h191q79 0 139 -9t100 -42.5t60 -100t20 -181.5zM400 334q0 60 -6 102t-20 68t-38 37.5t-60 11.5h-43v-439h43q36 0 60 11.5t38 37.5t20 68t6 103z" />
    <glyph glyph-name="E" unicode="E" horiz-adv-x="500" 
d="M63 0v667h414l-20 -124h-224v-143h178v-110h-178v-165h229l18 -125h-417z" />
    <glyph glyph-name="F" unicode="F" horiz-adv-x="470" 
d="M448 539h-215v-160h174v-113h-174v-266h-170v667h404z" />
    <glyph glyph-name="G" unicode="G" horiz-adv-x="590" 
d="M540 31q-17 -8 -41.5 -16t-53 -14t-60.5 -9.5t-63 -3.5q-77 0 -131 20t-88.5 62t-50 107.5t-15.5 156.5q0 90 16.5 155.5t51 107.5t88.5 62t129 20q60 0 114 -14.5t88 -27.5l-38 -112q-14 6 -31.5 11.5t-35.5 9.5t-35.5 6.5t-30.5 2.5q-44 0 -72 -12.5t-43.5 -39.5
t-21 -69t-5.5 -100q0 -52 7 -93.5t23.5 -70t45 -43.5t71.5 -15q6 0 15 0.5t15 1.5v161h-60l-10 105h222v-349z" />
    <glyph glyph-name="H" unicode="H" horiz-adv-x="655" 
d="M422 0v281h-189v-281h-170v667h170v-262h189v262h170v-667h-170z" />
    <glyph glyph-name="I" unicode="I" horiz-adv-x="296" 
d="M63 0v667h170v-667h-170z" />
    <glyph glyph-name="J" unicode="J" horiz-adv-x="299" 
d="M242 31q0 -48 -11.5 -79.5t-32 -50.5t-49 -26.5t-62.5 -7.5q-24 0 -40 1.5t-28 3.5t-22 5t-22 6l23 100q7 -2 13.5 -3t13.5 -1q13 0 22 3.5t14.5 14t8 30.5t2.5 53v587h170v-636z" />
    <glyph glyph-name="K" unicode="K" horiz-adv-x="606" 
d="M401 0l-168 300v-300h-170v667h170v-277l163 277h187l-200 -314l226 -353h-208z" />
    <glyph glyph-name="L" unicode="L" horiz-adv-x="451" 
d="M63 0v667h170v-530h197l17 -137h-384z" />
    <glyph glyph-name="M" unicode="M" horiz-adv-x="748" 
d="M547 0l-30 405l-96 -293h-103l-98 293l-28 -405h-168l65 667h167l118 -332l115 332h169l65 -667h-176z" />
    <glyph glyph-name="N" unicode="N" horiz-adv-x="636" 
d="M407 0l-194 404v-404h-150v667h163l197 -409v409h150v-667h-166z" />
    <glyph glyph-name="O" unicode="O" 
d="M588 334q0 -98 -17.5 -164.5t-52.5 -107t-86.5 -57.5t-118.5 -17q-68 0 -119 17t-86 57.5t-52.5 107t-17.5 164.5t17.5 164.5t52.5 106.5t86 57t119 17q67 0 118.5 -17t86.5 -57t52.5 -106.5t17.5 -164.5zM415 334q0 114 -21.5 170t-80.5 56t-80 -56t-21 -170t21 -170.5
t80 -56.5t80.5 56.5t21.5 170.5z" />
    <glyph glyph-name="P" unicode="P" horiz-adv-x="581" 
d="M557 454q0 -108 -72 -160t-200 -52h-52v-242h-170v667h208q84 0 139 -14t88 -41.5t46 -67t13 -90.5zM383 454q0 51 -26 75.5t-74 24.5h-50v-201h50q51 0 75.5 26.5t24.5 74.5z" />
    <glyph glyph-name="Q" unicode="Q" 
d="M414 334q0 114 -21 170t-80 56t-80.5 -56.5t-21.5 -169.5q0 -115 21.5 -171t80.5 -56t80 56t21 171zM486 -11q15 -16 22.5 -21t15.5 -5t15 2t10 4q9 -23 18 -45.5t19 -45.5q-12 -5 -31.5 -11.5t-49.5 -6.5q-26 0 -57 12.5t-62 46.5q-27 29 -46.5 50t-39.5 21
q-63 0 -111.5 17t-82.5 57t-51.5 106t-17.5 164t18 164t52.5 106.5t86 57.5t119.5 17q67 0 118.5 -17t86.5 -57.5t52.5 -106.5t17.5 -164q0 -112 -22.5 -180.5t-63.5 -106.5q-10 -10 -22 -18t-24 -13q2 -1 10.5 -8.5t19.5 -18.5z" />
    <glyph glyph-name="R" unicode="R" horiz-adv-x="597" 
d="M393 0l-137 269h-24v-269h-169v667h195q73 0 129 -8t94.5 -30t58.5 -61.5t20 -101.5q0 -40 -12 -70t-33 -52t-48.5 -36t-57.5 -21l186 -287h-202zM376 465q0 52 -23.5 70t-74.5 20h-46v-183h47q49 0 73 21.5t24 71.5z" />
    <glyph glyph-name="S" unicode="S" horiz-adv-x="499" 
d="M478 193q0 -100 -61 -152.5t-193 -52.5q-66 0 -119 10t-87 22l20 118q30 -10 70 -20t75 -10q20 0 38 3.5t31.5 11.5t21 21.5t7.5 34.5q0 24 -19 43.5t-47.5 38.5t-62 39.5t-62 46.5t-47.5 59.5t-19 78.5q0 99 64 146.5t176 47.5q59 0 103.5 -8t82.5 -18l-20 -117
q-26 9 -62 16.5t-72 7.5q-47 0 -67 -19t-20 -45q0 -24 20 -43t50 -38t64.5 -39t64.5 -46t50 -59t20 -78z" />
    <glyph glyph-name="T" unicode="T" horiz-adv-x="492" 
d="M470 530h-139v-530h-170v530h-139l-17 137h483z" />
    <glyph glyph-name="U" unicode="U" horiz-adv-x="606" 
d="M554 310q0 -89 -11 -150t-39 -99.5t-77.5 -55.5t-125.5 -17q-77 0 -125 17t-76 55.5t-38 99.5t-10 150v357h170v-407q0 -39 3 -67.5t12 -47.5t25.5 -28t42.5 -9q27 0 43 9t24.5 28t11 47.5t2.5 67.5v407h168v-357z" />
    <glyph glyph-name="V" unicode="V" horiz-adv-x="594" 
d="M389 0h-184l-200 667h187l111 -489l111 489h175z" />
    <glyph glyph-name="W" unicode="W" horiz-adv-x="768" 
d="M625 0h-157l-85 331l-90 -331h-151l-130 666h173l68 -405l75 302h118l71 -302l73 405h164z" />
    <glyph glyph-name="X" unicode="X" horiz-adv-x="603" 
d="M403 0l-103 227l-107 -227h-195l202 338l-189 329h200l89 -215l94 215h197l-188 -330l202 -337h-202z" />
    <glyph glyph-name="Y" unicode="Y" horiz-adv-x="580" 
d="M376 258v-258h-172v258l-212 409h188l116 -267l115 267h177z" />
    <glyph glyph-name="Z" unicode="Z" horiz-adv-x="497" 
d="M23 0v118l260 422h-247v127h424v-118l-258 -422h266v-127h-445z" />
    <glyph glyph-name="bracketleft" unicode="[" horiz-adv-x="327" 
d="M89 -208v1029h225v-100h-90v-829h90v-100h-225z" />
    <glyph glyph-name="backslash" unicode="\" horiz-adv-x="430" 
d="M272 -20l-263 707h149l263 -707h-149z" />
    <glyph glyph-name="bracketright" unicode="]" horiz-adv-x="327" 
d="M14 -208v100h90v829h-90v100h225v-1029h-225z" />
    <glyph glyph-name="asciicircum" unicode="^" horiz-adv-x="589" 
d="M447 423l-150 123l-155 -123l-68 68l188 179h70l184 -180z" />
    <glyph glyph-name="underscore" unicode="_" horiz-adv-x="436" 
d="M-3 -186v108h442v-108h-442z" />
    <glyph glyph-name="grave" unicode="`" horiz-adv-x="531" 
d="M325 585l-210 137l81 109l186 -168z" />
    <glyph glyph-name="a" unicode="a" horiz-adv-x="547" 
d="M353 0l-14 65q-9 -10 -23 -23t-34 -24.5t-46 -19.5t-60 -8q-32 0 -60 8.5t-49 27t-33 48t-12 70.5q0 98 75.5 142.5t216.5 44.5h18v5q0 33 -8 51.5t-21.5 27.5t-31.5 11t-38 2q-35 0 -77 -8t-83 -22l-20 100q47 17 101.5 28.5t107.5 11.5t97 -10t75 -32.5t48 -58
t17 -87.5v-350h-146zM332 250h-31q-63 0 -91 -21t-28 -69q0 -32 13 -49t44 -17q37 0 59.5 18.5t33.5 33.5v104z" />
    <glyph glyph-name="b" unicode="b" horiz-adv-x="601" 
d="M571 263q0 -76 -17 -128t-44 -84.5t-61.5 -46.5t-70.5 -14q-49 0 -90 16t-76 42l-14 -48h-146v729h167v-273q38 38 84.5 60t91.5 22q32 0 63.5 -13.5t56.5 -45t40.5 -84.5t15.5 -132zM400 260q0 46 -5 76t-15 46.5t-25.5 23t-35.5 6.5q-12 0 -26 -5t-27.5 -13.5
t-25.5 -19.5t-21 -23v-211q21 -15 46.5 -26.5t49.5 -11.5q21 0 36.5 7.5t26.5 25.5t16.5 48.5t5.5 76.5z" />
    <glyph glyph-name="c" unicode="c" horiz-adv-x="433" 
d="M432 22q-29 -12 -69 -22t-91 -10q-121 0 -180.5 65t-59.5 209t59.5 209t180.5 65q51 0 87 -8.5t63 -19.5l-33 -102q-19 8 -41 13t-45 5q-26 0 -45 -7.5t-31 -26.5t-17.5 -50t-5.5 -78q0 -46 5.5 -76.5t17.5 -49t30 -26t44 -7.5q25 0 50.5 6t46.5 14z" />
    <glyph glyph-name="d" unicode="d" horiz-adv-x="601" 
d="M403 0l-14 82q-42 -47 -90 -69.5t-93 -22.5q-32 0 -63.5 13t-56.5 44.5t-40.5 84t-15.5 130.5q0 76 17 129t44 85.5t61.5 47t70.5 14.5q77 0 160 -46v237h166v-729h-146zM383 383q-21 15 -46.5 24.5t-49.5 9.5q-21 0 -36.5 -6t-26.5 -22.5t-16.5 -46t-5.5 -75.5
q0 -47 5 -76.5t15.5 -46.5t26 -23.5t36.5 -6.5q24 0 52 20t46 46v203z" />
    <glyph glyph-name="e" unicode="e" horiz-adv-x="549" 
d="M523 268v-18t-1 -19h-321q1 -36 10 -61t24 -40t35 -21.5t44 -6.5q28 0 67 8t81 29l34 -98q-11 -8 -31.5 -17t-48.5 -16.5t-62 -12.5t-72 -5q-51 0 -96.5 13.5t-80 44.5t-54.5 81.5t-20 125.5q0 76 20.5 130t55 88t80 49.5t95.5 15.5q53 0 97 -16t76 -49t50 -84t18 -121z
M353 318q-1 41 -8 65t-17.5 36t-23.5 15.5t-25 3.5t-25.5 -4.5t-25 -17.5t-19 -36.5t-8.5 -61.5h152z" />
    <glyph glyph-name="f" unicode="f" horiz-adv-x="334" 
d="M331 620q-13 4 -26.5 7t-28.5 3q-29 0 -34 -17t-5 -54v-31h88l-13 -99h-75v-429h-167v429h-64l-7 99h71v69q0 68 31.5 106.5t108.5 38.5q50 0 80.5 -6.5t50.5 -13.5z" />
    <glyph glyph-name="g" unicode="g" horiz-adv-x="600" 
d="M549 25q0 -71 -18 -118t-51.5 -75t-81 -39t-106.5 -11q-58 0 -116 9t-111 29l22 109q45 -17 91.5 -23.5t77.5 -6.5q27 0 50 3.5t40.5 16t27 38t9.5 69.5v52q-35 -42 -82.5 -64.5t-94.5 -22.5q-33 0 -64.5 13.5t-56.5 45t-40 84t-15 129.5q0 76 17 128.5t44 85t61.5 47
t70.5 14.5q49 0 90 -16t76 -41l13 47h147v-503zM383 377q-20 15 -46 27.5t-50 12.5q-21 0 -36.5 -6t-26.5 -22.5t-16.5 -46t-5.5 -75.5q0 -47 4.5 -76.5t14.5 -46.5t24.5 -23.5t35.5 -6.5q13 0 28 6.5t29 17t25.5 24t19.5 27.5v188z" />
    <glyph glyph-name="h" unicode="h" horiz-adv-x="598" 
d="M383 0v300q0 33 -2 55t-8 35t-17 18.5t-30 5.5q-14 0 -29 -4.5t-29.5 -12t-27 -16.5t-21.5 -17v-364h-167v729h167v-265q10 9 27.5 22t40.5 24.5t52 19.5t62 8q43 0 71.5 -13.5t45.5 -37.5t24.5 -57.5t7.5 -72.5v-357h-167z" />
    <glyph glyph-name="i" unicode="i" horiz-adv-x="271" 
d="M230 684q0 -40 -27.5 -67t-66.5 -27q-20 0 -37 7t-30 20t-20.5 30t-7.5 37t7.5 37.5t20.5 30t30 20t37 7.5q19 0 36.5 -7.5t30 -20t20 -30t7.5 -37.5zM52 0v528h167v-528h-167z" />
    <glyph glyph-name="j" unicode="j" horiz-adv-x="271" 
d="M230 684q0 -40 -27.5 -67t-66.5 -27q-20 0 -37 7t-30 20t-20.5 30t-7.5 37t7.5 37.5t20.5 30t30 20t37 7.5q19 0 36.5 -7.5t30 -20t20 -30t7.5 -37.5zM219 -68q0 -39 -6.5 -67t-22 -46.5t-42.5 -27.5t-67 -9q-44 0 -70.5 7.5t-51.5 17.5l24 95q6 -2 17 -4.5t22 -2.5
q23 0 27 18t4 44v571h166v-596z" />
    <glyph glyph-name="k" unicode="k" horiz-adv-x="572" 
d="M389 0l-170 242v-242h-167v729h167v-401l161 200h185l-201 -233l227 -295h-202z" />
    <glyph glyph-name="l" unicode="l" horiz-adv-x="271" 
d="M52 0v729h167v-729h-167z" />
    <glyph glyph-name="m" unicode="m" horiz-adv-x="849" 
d="M635 0v334q0 18 -1 32.5t-5 25t-12.5 16.5t-24.5 6q-15 0 -29 -5t-26 -12.5t-20.5 -16t-12.5 -15.5v-365h-156v334q0 18 -1 32.5t-5 25t-12.5 16.5t-24.5 6q-15 0 -29 -5.5t-25.5 -13.5t-20.5 -17t-13 -16v-362h-166v528h147l12 -69q10 11 24.5 24.5t33.5 25.5t43.5 20.5
t53.5 8.5q95 0 125 -77q11 13 27.5 26.5t38 24.5t47 18.5t54.5 7.5q77 0 110.5 -49t33.5 -134v-355h-166z" />
    <glyph glyph-name="n" unicode="n" horiz-adv-x="596" 
d="M382 0v299q0 33 -2 55t-8 35.5t-17 19t-30 5.5q-14 0 -29.5 -4.5t-30 -12t-27 -16.5t-21.5 -17v-364h-166v528h147l12 -67q10 9 29 22.5t43.5 25.5t54.5 20.5t63 8.5q43 0 71.5 -13.5t45.5 -37.5t24.5 -57t7.5 -72v-358h-167z" />
    <glyph glyph-name="o" unicode="o" horiz-adv-x="574" 
d="M543 264q0 -80 -18.5 -132.5t-52 -84t-80.5 -44.5t-105 -13t-105 13t-80.5 44.5t-52 84t-18.5 132.5t18.5 132.5t52 84t80.5 44.5t105 13t105 -13t80.5 -44.5t52 -84t18.5 -132.5zM372 264q0 93 -18 132.5t-67 39.5t-67 -39.5t-18 -132.5t18 -132.5t67 -39.5t67 39.5
t18 132.5z" />
    <glyph glyph-name="p" unicode="p" horiz-adv-x="601" 
d="M571 263q0 -76 -17 -128t-44.5 -84.5t-63 -46.5t-72.5 -14q-86 0 -157 38v-236h-165v736h147l13 -70q13 15 32.5 29t43.5 25.5t51 18.5t56 7q33 0 64.5 -14t56.5 -46.5t40 -85t15 -129.5zM400 260q0 46 -5 76t-15 46.5t-25.5 23t-35.5 6.5q-13 0 -27 -5.5t-27.5 -14
t-25 -19.5t-20.5 -22v-229q21 -14 46.5 -19t49.5 -5q21 0 36.5 8t26.5 27t16.5 50t5.5 77z" />
    <glyph glyph-name="q" unicode="q" horiz-adv-x="601" 
d="M385 -208v284q-35 -42 -83 -64t-95 -22q-33 0 -65 14t-56.5 46.5t-40 84.5t-15.5 128t17 129t44 85t61.5 46.5t70.5 14.5q49 0 90 -16t76 -42l13 48h147v-736h-164zM383 377q-20 16 -46 28t-50 12q-21 0 -36.5 -6t-26.5 -22.5t-16.5 -45.5t-5.5 -75q0 -47 4.5 -76.5
t14.5 -46t24.5 -23t35.5 -6.5q13 0 28 6.5t29 16.5t25.5 23t19.5 27v188z" />
    <glyph glyph-name="r" unicode="r" horiz-adv-x="390" 
d="M371 392q-8 4 -22.5 6.5t-26.5 2.5q-28 0 -47.5 -13t-32 -37t-18.5 -58t-6 -75v-218h-167v528h147l15 -85q13 30 30.5 48.5t37 29.5t38.5 15t34 4q8 0 18.5 -2t20.5 -4z" />
    <glyph glyph-name="s" unicode="s" horiz-adv-x="429" 
d="M406 150q0 -36 -11 -65.5t-35.5 -50.5t-63 -32.5t-93.5 -11.5q-60 0 -105.5 11t-77.5 25l17 98q11 -4 26.5 -9t32.5 -9t34 -7t31 -3q36 0 57 8t21 40q0 21 -15.5 37.5t-39 31.5t-51 30.5t-51 35.5t-39 46.5t-15.5 62.5q0 73 46 111.5t149 38.5q52 0 89.5 -7t70.5 -18
l-16 -102q-20 7 -51 14t-60 7q-36 0 -53 -8.5t-17 -29.5q0 -18 16.5 -32t40.5 -28.5t53 -30t53 -37t40.5 -49.5t16.5 -67z" />
    <glyph glyph-name="t" unicode="t" horiz-adv-x="353" 
d="M345 17q-23 -10 -53.5 -18.5t-76.5 -8.5q-80 0 -113 35t-33 114v290h-63l-8 99h75l2 125h161v-125h100l-14 -99h-86v-260q0 -31 7 -46.5t30 -15.5q16 0 27.5 3.5t19.5 5.5z" />
    <glyph glyph-name="u" unicode="u" horiz-adv-x="595" 
d="M400 0l-14 67q-11 -9 -29 -22.5t-42 -25.5t-53.5 -20.5t-62.5 -8.5q-43 0 -72 13.5t-46.5 37.5t-25 57t-7.5 72v358h167v-298q0 -33 2 -55t8.5 -35.5t18 -19t30.5 -5.5q14 0 29 5.5t29 13.5t26 17.5t21 17.5v359h167v-528h-146z" />
    <glyph glyph-name="v" unicode="v" horiz-adv-x="548" 
d="M357 0h-168l-184 528h169l100 -368l107 368h161z" />
    <glyph glyph-name="w" unicode="w" horiz-adv-x="818" 
d="M657 0h-156l-97 327l-97 -327h-148l-148 528h160l83 -331l94 331h131l92 -331l86 331h150z" />
    <glyph glyph-name="x" unicode="x" horiz-adv-x="523" 
d="M348 0l-93 175l-86 -175h-165l168 278l-154 250h171l79 -162l75 162h164l-156 -258l168 -270h-171z" />
    <glyph glyph-name="y" unicode="y" horiz-adv-x="525" 
d="M323 -37q-23 -65 -43 -101t-41 -54t-43 -22t-49 -4q-55 0 -89 18l22 109q5 -2 19 -5t29 -3q17 0 31 15.5t28 57.5q1 3 2 7q1 3 2 5t1 3l-189 539h172l89 -366l94 366h164z" />
    <glyph glyph-name="z" unicode="z" horiz-adv-x="430" 
d="M23 0v100l204 317h-194v111h368v-100l-204 -317h210v-111h-384z" />
    <glyph glyph-name="braceleft" unicode="{" horiz-adv-x="348" 
d="M263 -208q-32 0 -60 8.5t-48.5 26.5t-32 46.5t-11.5 67.5v257q0 37 -23 50t-57 16v97q15 1 29.5 4t25.5 9.5t18 18t7 29.5v250q0 39 11.5 67.5t32 46.5t48.5 26.5t60 8.5h79v-99h-41q-35 0 -45 -15t-10 -42v-247q0 -43 -18.5 -67.5t-63.5 -37.5q45 -13 63.5 -38.5
t18.5 -73.5v-253q0 -27 10 -42t45 -15h41v-99h-79z" />
    <glyph glyph-name="bar" unicode="|" horiz-adv-x="264" 
d="M73 -208v1002h118v-1002h-118z" />
    <glyph glyph-name="braceright" unicode="}" horiz-adv-x="348" 
d="M317 259q-15 -1 -29.5 -4t-25.5 -9.5t-18 -18t-7 -29.5v-257q0 -39 -11.5 -67.5t-32 -46.5t-48.5 -26.5t-60 -8.5h-79v99h42q35 0 44.5 15t9.5 42v253q0 43 19 68t64 38q-45 13 -64 38t-19 73v247q0 27 -9.5 42t-44.5 15h-42v99h79q32 0 60 -8.5t48.5 -26.5t32 -46.5
t11.5 -67.5v-250q0 -37 23 -50t57 -16v-97z" />
    <glyph glyph-name="asciitilde" unicode="~" horiz-adv-x="589" 
d="M531 373q-19 -24 -36.5 -45t-36 -37t-39.5 -25t-46 -9q-24 0 -46.5 8.5t-44 18.5t-41 18.5t-35.5 8.5q-23 0 -43 -15.5t-37 -35.5l-68 49q19 24 36.5 45t36 37t39 25t46.5 9q22 0 44.5 -8.5t43.5 -19t40.5 -19t37.5 -8.5q23 0 43.5 16.5t37.5 36.5z" />
    <glyph glyph-name="Zcaron" horiz-adv-x="497" 
d="M23 0v118l260 422h-247v127h424v-118l-258 -422h266v-127h-445zM303 719h-112l-132 149l67 67l123 -102l124 102l66 -66z" />
    <glyph glyph-name="Zcaron" unicode="&#x17d;" horiz-adv-x="497" 
d="M23 0v118l260 422h-247v127h424v-118l-258 -422h266v-127h-445zM303 719h-112l-132 149l67 67l123 -102l124 102l66 -66z" />
    <glyph glyph-name="zcaron" horiz-adv-x="434" 
d="M23 0v100l204 317h-194v111h368v-100l-204 -317h210v-111h-384zM276 596h-112l-132 149l67 67l123 -102l124 102l66 -66z" />
    <glyph glyph-name="zcaron" unicode="&#x17e;" horiz-adv-x="434" 
d="M23 0v100l204 317h-194v111h368v-100l-204 -317h210v-111h-384zM276 596h-112l-132 149l67 67l123 -102l124 102l66 -66z" />
    <glyph glyph-name="nonbreakingspace" unicode="&#xa0;" horiz-adv-x="226" 
 />
    <glyph glyph-name="exclamdown" unicode="&#xa1;" horiz-adv-x="309" 
d="M252 441q0 -41 -28.5 -69.5t-69.5 -28.5t-69 28.5t-28 69.5t28 69t69 28t69.5 -28t28.5 -69zM55 -141l23 430h153l23 -430h-199z" />
    <glyph glyph-name="cent" unicode="&#xa2;" horiz-adv-x="550" 
d="M486 116q-23 -10 -54 -19t-71 -12v-85h-110v89q-80 14 -124 73t-44 175q0 113 44 171.5t124 73.5v85h110v-81q34 -2 64.5 -10t52.5 -17l-34 -96q-19 7 -42.5 12.5t-46.5 5.5q-26 0 -44.5 -6.5t-30.5 -23t-18 -44.5t-6 -70q0 -75 21 -108.5t74 -33.5q26 0 52.5 5.5
t49.5 13.5z" />
    <glyph glyph-name="sterling" unicode="&#xa3;" horiz-adv-x="550" 
d="M525 638q-8 -26 -16.5 -52t-16.5 -52q-26 11 -64.5 20t-78.5 9q-46 0 -68.5 -20t-22.5 -66q0 -21 2.5 -46.5t4.5 -44.5h148v-87h-135q2 -11 3.5 -27.5t1.5 -33.5q0 -37 -8 -68t-26 -54h280v-116h-474v85q30 28 44 61t14 86q0 22 -1 37.5t-3 29.5h-72v87h58q-2 10 -3 23.5
t-2.5 28t-2 28.5t-0.5 24q0 96 58 142.5t168 46.5q75 0 127.5 -13.5t84.5 -27.5z" />
    <glyph glyph-name="currency" unicode="&#xa4;" horiz-adv-x="509" 
d="M92 190q-13 21 -18.5 45t-5.5 48q0 26 6 48t17 42q-12 13 -26.5 28t-24.5 25l71 71l52 -52q20 12 44.5 18t47.5 6q24 0 48.5 -5.5t42.5 -17.5l52 52l71 -71l-52 -52q11 -22 17.5 -45.5t6.5 -46.5q0 -25 -6 -49.5t-18 -43.5q12 -13 27 -27t25 -24l-71 -71l-52 51
q-42 -23 -91 -23q-52 0 -92 23l-51 -51l-71 71zM341 283q0 18 -7 33.5t-19 27t-27.5 18.5t-32.5 7q-18 0 -33.5 -7t-27.5 -18.5t-18.5 -27t-6.5 -33.5q0 -17 6.5 -32.5t18.5 -27t27.5 -18.5t33.5 -7q35 0 60.5 25t25.5 60z" />
    <glyph glyph-name="yen" unicode="&#xa5;" horiz-adv-x="550" 
d="M426 394h89v-70h-123l-26 -56h149v-71h-155v-197h-171v197h-154v71h148l-25 56h-123v70h87l-132 273h187l104 -284l104 284h175z" />
    <glyph glyph-name="brokenbar" unicode="&#xa6;" horiz-adv-x="264" 
d="M73 461v333h118v-333h-118zM73 -208v336h118v-336h-118z" />
    <glyph glyph-name="section" unicode="&#xa7;" horiz-adv-x="512" 
d="M474 273q0 -22 -8.5 -42.5t-21.5 -38t-28 -30.5t-27 -20q21 -14 39 -40t18 -61q0 -36 -11 -65.5t-35.5 -50.5t-63 -32.5t-93.5 -11.5q-60 0 -107 14t-79 28l17 97q11 -4 26 -10.5t32.5 -12.5t37 -10t39.5 -4q33 0 55 10t22 39q0 23 -18.5 39.5t-45.5 30.5t-59.5 29
t-59.5 35t-45.5 48t-18.5 70q0 24 9 44t22.5 36t29 28t28.5 18q-26 20 -43 49t-17 64q0 73 45.5 114t147.5 41q54 0 95 -12t73 -23l-16 -99q-10 4 -25 9t-32.5 9.5t-35.5 8t-34 3.5q-29 0 -44.5 -12t-15.5 -33q0 -20 18.5 -35t46 -30.5t59.5 -32t59.5 -38.5t46 -51t18.5 -69
zM346 246q0 30 -39 57.5t-105 59.5q-14 -7 -25.5 -21t-11.5 -33q0 -16 9.5 -29t28.5 -26.5t47 -28t64 -32.5q10 8 21 21t11 32z" />
    <glyph glyph-name="dieresis" unicode="&#xa8;" horiz-adv-x="531" 
d="M472 685q0 -35 -24 -59t-59 -24t-59 24t-24 59t24 59t59 24t59 -24t24 -59zM224 685q0 -35 -23 -59t-58 -24q-17 0 -32.5 6.5t-27 17.5t-18 26t-6.5 33t6.5 33t18 26t27 17.5t32.5 6.5q35 0 58 -24t23 -59z" />
    <glyph glyph-name="copyright" unicode="&#xa9;" horiz-adv-x="811" 
d="M751 333q0 -72 -27 -134.5t-74 -109.5t-109.5 -74t-134.5 -27t-135 27t-110 74t-74 109.5t-27 134.5t27 135t74 110t110 74t135 27t134.5 -27t109.5 -74t74 -110t27 -135zM665 333q0 54 -20 101.5t-55.5 82.5t-82.5 55.5t-101 20.5t-101.5 -20.5t-82.5 -55.5t-55.5 -82.5
t-20.5 -101.5t20.5 -101t55.5 -82.5t82.5 -55.5t101.5 -20t101 20t82.5 55.5t55.5 82.5t20 101zM527 169q-20 -9 -44.5 -16.5t-60.5 -7.5q-44 0 -75 11t-50.5 34.5t-28.5 59.5t-9 87q0 99 38.5 145.5t124.5 46.5q35 0 58 -6.5t43 -14.5l-26 -66q-14 5 -29 8.5t-32 3.5
q-39 0 -57.5 -26t-18.5 -91q0 -64 18.5 -90t57.5 -26q17 0 33.5 3.5t31.5 9.5z" />
    <glyph glyph-name="ordfeminine" unicode="&#xaa;" horiz-adv-x="435" 
d="M301 206l-12 53q-8 -10 -20 -20.5t-28.5 -19.5t-37 -14.5t-45.5 -5.5q-29 0 -53.5 7.5t-42.5 24.5t-28 44.5t-10 68.5q0 44 15.5 75t45 50t71 27.5t93.5 8.5h22v20q0 24 -6 37.5t-16 20.5t-23.5 9t-28.5 2q-60 0 -136 -26l-18 88q44 17 92 25t92 8q94 0 134 -42t40 -127
v-314h-100zM271 427h-26q-50 0 -74 -17t-24 -55q0 -65 49 -65q27 0 45.5 15.5t29.5 31.5v90z" />
    <glyph glyph-name="guillemotleft" unicode="&#xab;" horiz-adv-x="534" 
d="M420 91l-172 196l172 196l69 -59l-101 -136l103 -137zM200 89l-174 198l174 198l71 -58l-104 -139l106 -139z" />
    <glyph glyph-name="logicalnot" unicode="&#xac;" horiz-adv-x="550" 
d="M355 97v173h-322v122h462v-295h-140z" />
    <glyph glyph-name="registered" unicode="&#xae;" horiz-adv-x="668" 
d="M601 515q0 -55 -21 -103.5t-57 -85t-84.5 -57.5t-103.5 -21q-56 0 -104.5 21t-85 57.5t-57.5 85t-21 103.5t21 103.5t57.5 85t85 57.5t104.5 21q55 0 103.5 -21t84.5 -57.5t57 -85t21 -103.5zM537 515q0 42 -16 79t-43 64.5t-64 43.5t-79 16t-79.5 -16t-65 -43.5
t-43.5 -64.5t-16 -79t16 -79t43.5 -64.5t65 -43.5t79.5 -16t79 16t64 43.5t43 64.5t16 79zM379 376l-80 110v-110h-61v285h81q28 0 50 -4t37.5 -13.5t23.5 -26.5t8 -43q0 -70 -77 -79l95 -119h-77zM375 575q0 20 -10.5 26.5t-36.5 6.5h-29v-66h25q26 0 38.5 7t12.5 26z" />
    <glyph glyph-name="macron" unicode="&#xaf;" horiz-adv-x="531" 
d="M92 628v97h347v-97h-347z" />
    <glyph glyph-name="macron" unicode="&#x2c9;" horiz-adv-x="531" 
d="M92 628v97h347v-97h-347z" />
    <glyph glyph-name="degree" unicode="&#xb0;" horiz-adv-x="510" 
d="M435 499q0 -38 -14 -71t-38 -57.5t-57 -38.5t-71 -14t-70.5 14t-57.5 38.5t-39 57.5t-14 71q0 37 14 70t39 57.5t57.5 38.5t70.5 14t71 -14t57 -38.5t38 -57.5t14 -70zM336 499q0 34 -23.5 57t-57.5 23t-57.5 -23t-23.5 -57t23.5 -57.5t57.5 -23.5t57.5 23.5t23.5 57.5z
" />
    <glyph glyph-name="plusminus" unicode="&#xb1;" horiz-adv-x="550" 
d="M343 349v-155h-136v155h-153v119h153v155h136v-155h153v-119h-153zM54 12v119h442v-119h-442z" />
    <glyph glyph-name="twosuperior" unicode="&#xb2;" horiz-adv-x="349" 
d="M7 212v75q26 28 58 59.5t59.5 65t46.5 67.5t19 67q0 29 -17.5 41t-48.5 12q-23 0 -47.5 -6.5t-40.5 -14.5l-33 79q12 6 28 12.5t36 12.5t43 10t47 4q81 0 124.5 -34.5t43.5 -97.5q0 -37 -14 -70t-36.5 -63t-52.5 -59t-61 -58h170v-102h-324z" />
    <glyph glyph-name="threesuperior" unicode="&#xb3;" horiz-adv-x="375" 
d="M349 348q0 -39 -13.5 -66.5t-38 -45t-58.5 -25t-76 -7.5q-56 0 -95 8t-67 19l30 86q20 -8 47.5 -14t56.5 -6q16 0 31 2t25.5 8.5t17 18t6.5 30.5q0 21 -7.5 33t-22.5 18t-38 8t-53 2v79q32 0 53.5 3t34 10t18 19.5t5.5 31.5q0 14 -6 22.5t-16 13t-21.5 6t-23.5 1.5
q-11 0 -24.5 -1.5t-27 -4.5t-25.5 -7t-21 -8l-28 82q23 11 64 21.5t95 10.5q37 0 68 -7t53 -22t34.5 -38t12.5 -56q0 -24 -6.5 -42.5t-17.5 -32t-25 -22.5t-28 -15q36 -10 61.5 -35t25.5 -78z" />
    <glyph glyph-name="acute" unicode="&#xb4;" horiz-adv-x="531" 
d="M236 585l-58 78l186 168l82 -109z" />
    <glyph glyph-name="uni00b5" unicode="&#xb5;" horiz-adv-x="601" 
d="M410 0l-11 54q-5 -10 -14 -21t-22 -20.5t-29.5 -16t-36.5 -6.5q-32 0 -50.5 14t-33.5 35v-247h-162v736h167v-298q0 -69 19.5 -98t58.5 -29q38 0 62 28.5t24 88.5v308h167v-528h-139z" />
    <glyph glyph-name="paragraph" unicode="&#xb6;" horiz-adv-x="661" 
d="M477 -208v875h109v-875h-109zM275 -208v467h-27q-52 0 -93 15.5t-69 42.5t-42.5 64.5t-14.5 81.5t14.5 81.5t42.5 64.5t69 42.5t93 15.5h135v-875h-108z" />
    <glyph glyph-name="periodcentered" unicode="&#xb7;" horiz-adv-x="308" 
d="M251 307q0 -41 -27.5 -69t-68.5 -28t-69.5 28t-28.5 69t28.5 69t69.5 28t68.5 -28t27.5 -69z" />
    <glyph glyph-name="periodcentered" unicode="&#x22c5;" horiz-adv-x="308" 
d="M251 307q0 -41 -27.5 -69t-68.5 -28t-69.5 28t-28.5 69t28.5 69t69.5 28t68.5 -28t27.5 -69z" />
    <glyph glyph-name="periodcentered" unicode="&#x2219;" horiz-adv-x="308" 
d="M251 307q0 -41 -27.5 -69t-68.5 -28t-69.5 28t-28.5 69t28.5 69t69.5 28t68.5 -28t27.5 -69z" />
    <glyph glyph-name="cedilla" unicode="&#xb8;" horiz-adv-x="514" 
d="M388 -127q0 -51 -38.5 -77t-103.5 -26q-23 0 -49.5 4t-40.5 9l20 62q11 -4 26 -7t32 -3q24 0 37.5 9t13.5 29q0 29 -50 29q-12 0 -24 -1t-17 -3l30 107h60l-10 -47q4 1 9.5 2t14.5 1q39 0 64.5 -21.5t25.5 -66.5z" />
    <glyph glyph-name="onesuperior" unicode="&#xb9;" horiz-adv-x="284" 
d="M116 212v341l-73 -51l-53 77l161 109h97v-476h-132z" />
    <glyph glyph-name="ordmasculine" unicode="&#xba;" horiz-adv-x="465" 
d="M433 445q0 -69 -14 -116t-40 -76t-63 -41.5t-84 -12.5t-84.5 12.5t-63.5 41.5t-39.5 76t-13.5 116q0 68 13.5 114.5t39.5 75t63.5 41t84.5 12.5t84 -12.5t63 -41t40 -75t14 -114.5zM303 445q0 81 -17 115.5t-54 34.5t-54 -34.5t-17 -115.5t17 -117t54 -36t54 36t17 117z
" />
    <glyph glyph-name="guillemotright" unicode="&#xbb;" horiz-adv-x="534" 
d="M333 89l-70 58l104 139l-106 139l72 60l175 -198zM113 91l-69 59l102 136l-103 137l70 60l173 -196z" />
    <glyph glyph-name="onequarter" unicode="&#xbc;" horiz-adv-x="949" 
d="M116 212v341l-73 -51l-53 77l161 109h97v-476h-132zM905 63v-64h-126v64h-216l-5 77l143 355l112 -54l-123 -290h92v86h123v-88h41v-86h-41zM332 -3h-128l380 690h127z" />
    <glyph glyph-name="onehalf" unicode="&#xbd;" horiz-adv-x="976" 
d="M116 212v341l-73 -51l-53 77l161 109h97v-476h-132zM332 -3h-128l380 690h127zM635 0v76q26 28 58 59.5t59.5 64.5t46.5 67t19 67q0 29 -17.5 41t-48.5 12q-23 0 -47.5 -6.5t-40.5 -14.5l-33 79q12 6 28 12.5t36 12.5t43 10t47 4q81 0 124.5 -34t43.5 -98
q0 -37 -14 -69.5t-36.5 -62.5t-52.5 -59t-61 -59h170v-102h-324z" />
    <glyph glyph-name="threequarters" unicode="&#xbe;" horiz-adv-x="999" 
d="M955 63v-64h-126v64h-216l-5 77l143 355l112 -54l-123 -290h92v86h123v-88h41v-86h-41zM382 -3h-128l380 690h127zM349 348q0 -39 -13.5 -66.5t-38 -45t-58.5 -25t-76 -7.5q-56 0 -95 8t-67 19l30 86q20 -8 47.5 -14t56.5 -6q16 0 31 2t25.5 8.5t17 18t6.5 30.5
q0 21 -7.5 33t-22.5 18t-38 8t-53 2v79q32 0 53.5 3t34 10t18 19.5t5.5 31.5q0 14 -6 22.5t-16 13t-21.5 6t-23.5 1.5q-11 0 -24.5 -1.5t-27 -4.5t-25.5 -7t-21 -8l-28 82q23 11 64 21.5t95 10.5q37 0 68 -7t53 -22t34.5 -38t12.5 -56q0 -24 -6.5 -42.5t-17.5 -32t-25 -22.5
t-28 -15q36 -10 61.5 -35t25.5 -78z" />
    <glyph glyph-name="questiondown" unicode="&#xbf;" horiz-adv-x="445" 
d="M352 441q0 -20 -7.5 -37.5t-21 -30.5t-31 -20.5t-37.5 -7.5q-40 0 -68 28t-28 68q0 41 28 69t68 28q20 0 37.5 -7.5t31 -20.5t21 -31t7.5 -38zM437 -92q-14 -8 -34 -18t-45.5 -19.5t-56 -16t-65.5 -6.5q-40 0 -77.5 7.5t-67 27.5t-47.5 54t-18 87q0 37 11.5 63.5
t28.5 46.5t37 36.5t37.5 33.5t30.5 36t16 45h140q-2 -30 -11.5 -52.5t-22.5 -41t-28.5 -34t-28.5 -33t-21.5 -38t-8.5 -48.5q0 -27 14.5 -42.5t46.5 -15.5q34 0 67.5 14.5t53.5 25.5z" />
    <glyph glyph-name="Agrave" unicode="&#xc0;" 
d="M436 0l-29 102h-199l-29 -102h-173l204 667h208l202 -667h-184zM308 515l-75 -302h150zM373 708l-210 137l81 109l186 -168z" />
    <glyph glyph-name="Aacute" unicode="&#xc1;" 
d="M436 0l-29 102h-199l-29 -102h-173l204 667h208l202 -667h-184zM308 515l-75 -302h150zM284 708l-58 78l186 168l82 -109z" />
    <glyph glyph-name="Acircumflex" unicode="&#xc2;" 
d="M436 0l-29 102h-199l-29 -102h-173l204 667h208l202 -667h-184zM308 515l-75 -302h150zM436 712l-123 102l-125 -102l-65 65l137 150h111l132 -148z" />
    <glyph glyph-name="Atilde" unicode="&#xc3;" 
d="M436 0l-29 102h-199l-29 -102h-173l204 667h208l202 -667h-184zM308 515l-75 -302h150zM536 835q-17 -21 -32.5 -41t-32.5 -35.5t-38 -25t-48 -9.5q-22 0 -42.5 7.5t-39 17t-35.5 17t-33 7.5q-23 0 -45 -15.5t-34 -30.5l-65 46q17 21 32.5 41t32.5 35t38 24.5t48 9.5
q21 0 40.5 -7.5t38 -17t36 -17t34.5 -7.5q23 0 45.5 15.5t34.5 30.5z" />
    <glyph glyph-name="Adieresis" unicode="&#xc4;" 
d="M436 0l-29 102h-199l-29 -102h-173l204 667h208l202 -667h-184zM308 515l-75 -302h150zM519 808q0 -35 -24 -59t-59 -24t-59 24t-24 59t24 59t59 24t59 -24t24 -59zM271 808q0 -35 -23 -59t-58 -24q-17 0 -32.5 6.5t-27 17.5t-18 26t-6.5 33t6.5 33t18 26t27 17.5
t32.5 6.5q35 0 58 -24t23 -59z" />
    <glyph glyph-name="Aring" unicode="&#xc5;" 
d="M436 0l-29 102h-199l-29 -102h-173l204 667h208l202 -667h-184zM308 515l-75 -302h150zM444 844q0 -27 -10 -51t-27.5 -42t-41.5 -28.5t-52 -10.5t-52 10.5t-42 28.5t-28 42t-10 51t10 51t28 42t42 28t52 10t52 -10t41.5 -28t27.5 -42t10 -51zM369 844q0 23 -15 40
t-41 17t-41.5 -17t-15.5 -40t15.5 -40.5t41.5 -17.5t41 17t15 41z" />
    <glyph glyph-name="AE" unicode="&#xc6;" horiz-adv-x="829" 
d="M395 0v102h-182l-46 -102h-180l305 667h515l-20 -124h-223v-143h177v-110h-177v-165h228l18 -125h-415zM394 533l-140 -320h140v320z" />
    <glyph glyph-name="Ccedilla" unicode="&#xc7;" horiz-adv-x="505" 
d="M484 20q-33 -14 -72.5 -23t-93.5 -9h-10l-6 -30q4 1 9.5 2t14.5 1q39 0 64.5 -21.5t25.5 -66.5q0 -51 -38.5 -77t-103.5 -26q-23 0 -49.5 4t-40.5 9l20 62q11 -4 26 -7t32 -3q24 0 37.5 9t13.5 29q0 29 -50 29q-12 0 -24 -1t-17 -3l26 94v1q-56 8 -95.5 32t-65 65
t-37.5 101.5t-12 142.5q0 90 15 155.5t48 107.5t85 62t127 20q56 0 94 -9.5t68 -19.5l-33 -111q-23 8 -47 13.5t-51 5.5q-69 0 -100.5 -53.5t-31.5 -170.5q0 -106 30 -163.5t101 -57.5q28 0 54.5 6t52.5 16z" />
    <glyph glyph-name="Egrave" unicode="&#xc8;" horiz-adv-x="500" 
d="M63 0v667h414l-20 -124h-224v-143h178v-110h-178v-165h229l18 -125h-417zM325 708l-210 137l81 109l186 -168z" />
    <glyph glyph-name="Eacute" unicode="&#xc9;" horiz-adv-x="500" 
d="M63 0v667h414l-20 -124h-224v-143h178v-110h-178v-165h229l18 -125h-417zM236 708l-58 78l186 168l82 -109z" />
    <glyph glyph-name="Ecircumflex" unicode="&#xca;" horiz-adv-x="500" 
d="M63 0v667h414l-20 -124h-224v-143h178v-110h-178v-165h229l18 -125h-417zM389 712l-123 102l-125 -102l-65 65l137 150h111l132 -148z" />
    <glyph glyph-name="Edieresis" unicode="&#xcb;" horiz-adv-x="500" 
d="M63 0v667h414l-20 -124h-224v-143h178v-110h-178v-165h229l18 -125h-417zM472 808q0 -35 -24 -59t-59 -24t-59 24t-24 59t24 59t59 24t59 -24t24 -59zM224 808q0 -35 -23 -59t-58 -24q-17 0 -32.5 6.5t-27 17.5t-18 26t-6.5 33t6.5 33t18 26t27 17.5t32.5 6.5
q35 0 58 -24t23 -59z" />
    <glyph glyph-name="Igrave" unicode="&#xcc;" horiz-adv-x="296" 
d="M63 0v667h170v-667h-170zM209 708l-210 137l81 109l186 -168z" />
    <glyph glyph-name="Iacute" unicode="&#xcd;" horiz-adv-x="296" 
d="M63 0v667h170v-667h-170zM120 708l-58 78l186 168l82 -109z" />
    <glyph glyph-name="Icircumflex" unicode="&#xce;" horiz-adv-x="296" 
d="M63 0v667h170v-667h-170zM273 712l-123 102l-125 -102l-65 65l137 150h111l132 -148z" />
    <glyph glyph-name="Idieresis" unicode="&#xcf;" horiz-adv-x="296" 
d="M63 0v667h170v-667h-170zM356 808q0 -35 -24 -59t-59 -24t-59 24t-24 59t24 59t59 24t59 -24t24 -59zM108 808q0 -35 -23 -59t-58 -24q-17 0 -32.5 6.5t-27 17.5t-18 26t-6.5 33t6.5 33t18 26t27 17.5t32.5 6.5q35 0 58 -24t23 -59z" />
    <glyph glyph-name="Eth" unicode="&#xd0;" horiz-adv-x="619" 
d="M581 334q0 -77 -9 -131.5t-26.5 -92t-44.5 -59t-62.5 -33t-79.5 -15t-97 -3.5h-191v296h-65l-3 97h68v274h191q79 0 139 -9t100 -42.5t60 -100t20 -181.5zM408 334q0 61 -6 103t-20 68.5t-38 38.5t-60 12h-42v-163h82v-97h-82v-185h42q36 0 60 12t38 38t20 68.5t6 104.5z
" />
    <glyph glyph-name="Ntilde" unicode="&#xd1;" horiz-adv-x="636" 
d="M407 0l-194 404v-404h-150v667h163l197 -409v409h150v-667h-166zM531 835q-17 -21 -32.5 -41t-32.5 -35.5t-38 -25t-48 -9.5q-22 0 -42.5 7.5t-39 17t-35.5 17t-33 7.5q-23 0 -45 -15.5t-34 -30.5l-65 46q17 21 32.5 41t32.5 35t38 24.5t48 9.5q21 0 40.5 -7.5t38 -17
t36 -17t34.5 -7.5q23 0 45.5 15.5t34.5 30.5z" />
    <glyph glyph-name="Ograve" unicode="&#xd2;" 
d="M588 334q0 -98 -17.5 -164.5t-52.5 -107t-86.5 -57.5t-118.5 -17q-68 0 -119 17t-86 57.5t-52.5 107t-17.5 164.5t17.5 164.5t52.5 106.5t86 57t119 17q67 0 118.5 -17t86.5 -57t52.5 -106.5t17.5 -164.5zM415 334q0 114 -21.5 170t-80.5 56t-80 -56t-21 -170t21 -170.5
t80 -56.5t80.5 56.5t21.5 170.5zM372 708l-210 137l81 109l186 -168z" />
    <glyph glyph-name="Oacute" unicode="&#xd3;" 
d="M588 334q0 -98 -17.5 -164.5t-52.5 -107t-86.5 -57.5t-118.5 -17q-68 0 -119 17t-86 57.5t-52.5 107t-17.5 164.5t17.5 164.5t52.5 106.5t86 57t119 17q67 0 118.5 -17t86.5 -57t52.5 -106.5t17.5 -164.5zM415 334q0 114 -21.5 170t-80.5 56t-80 -56t-21 -170t21 -170.5
t80 -56.5t80.5 56.5t21.5 170.5zM283 708l-58 78l186 168l82 -109z" />
    <glyph glyph-name="Ocircumflex" unicode="&#xd4;" 
d="M588 334q0 -98 -17.5 -164.5t-52.5 -107t-86.5 -57.5t-118.5 -17q-68 0 -119 17t-86 57.5t-52.5 107t-17.5 164.5t17.5 164.5t52.5 106.5t86 57t119 17q67 0 118.5 -17t86.5 -57t52.5 -106.5t17.5 -164.5zM415 334q0 114 -21.5 170t-80.5 56t-80 -56t-21 -170t21 -170.5
t80 -56.5t80.5 56.5t21.5 170.5zM436 712l-123 102l-125 -102l-65 65l137 150h111l132 -148z" />
    <glyph glyph-name="Otilde" unicode="&#xd5;" 
d="M588 334q0 -98 -17.5 -164.5t-52.5 -107t-86.5 -57.5t-118.5 -17q-68 0 -119 17t-86 57.5t-52.5 107t-17.5 164.5t17.5 164.5t52.5 106.5t86 57t119 17q67 0 118.5 -17t86.5 -57t52.5 -106.5t17.5 -164.5zM415 334q0 114 -21.5 170t-80.5 56t-80 -56t-21 -170t21 -170.5
t80 -56.5t80.5 56.5t21.5 170.5zM536 835q-17 -21 -32.5 -41t-32.5 -35.5t-38 -25t-48 -9.5q-22 0 -42.5 7.5t-39 17t-35.5 17t-33 7.5q-23 0 -45 -15.5t-34 -30.5l-65 46q17 21 32.5 41t32.5 35t38 24.5t48 9.5q21 0 40.5 -7.5t38 -17t36 -17t34.5 -7.5q23 0 45.5 15.5
t34.5 30.5z" />
    <glyph glyph-name="Odieresis" unicode="&#xd6;" 
d="M588 334q0 -98 -17.5 -164.5t-52.5 -107t-86.5 -57.5t-118.5 -17q-68 0 -119 17t-86 57.5t-52.5 107t-17.5 164.5t17.5 164.5t52.5 106.5t86 57t119 17q67 0 118.5 -17t86.5 -57t52.5 -106.5t17.5 -164.5zM415 334q0 114 -21.5 170t-80.5 56t-80 -56t-21 -170t21 -170.5
t80 -56.5t80.5 56.5t21.5 170.5zM519 808q0 -35 -24 -59t-59 -24t-59 24t-24 59t24 59t59 24t59 -24t24 -59zM271 808q0 -35 -23 -59t-58 -24q-17 0 -32.5 6.5t-27 17.5t-18 26t-6.5 33t6.5 33t18 26t27 17.5t32.5 6.5q35 0 58 -24t23 -59z" />
    <glyph glyph-name="multiply" unicode="&#xd7;" horiz-adv-x="550" 
d="M416 96l-142 141l-141 -141l-87 86l142 142l-142 142l87 86l141 -142l142 142l87 -86l-142 -142l142 -142z" />
    <glyph glyph-name="Oslash" unicode="&#xd8;" 
d="M588 334q0 -98 -17.5 -164.5t-52.5 -107t-86.5 -57.5t-118.5 -17q-53 0 -95.5 10t-75.5 33l-48 -66l-63 46l57 78q-50 79 -50 245q0 98 17.5 164.5t52.5 106.5t86 57t119 17q53 0 95.5 -10.5t75.5 -33.5l48 67l62 -48l-56 -77q25 -41 37.5 -100.5t12.5 -142.5zM212 334
v-37.5t2 -33.5l177 244q-24 50 -78 50q-59 0 -80 -54.5t-21 -168.5zM415 334q0 19 -0.5 36.5t-1.5 33.5l-178 -245q12 -25 30.5 -37t47.5 -12q59 0 80.5 55t21.5 169z" />
    <glyph glyph-name="Ugrave" unicode="&#xd9;" horiz-adv-x="606" 
d="M554 310q0 -89 -11 -150t-39 -99.5t-77.5 -55.5t-125.5 -17q-77 0 -125 17t-76 55.5t-38 99.5t-10 150v357h170v-407q0 -39 3 -67.5t12 -47.5t25.5 -28t42.5 -9q27 0 43 9t24.5 28t11 47.5t2.5 67.5v407h168v-357zM360 708l-210 137l81 109l186 -168z" />
    <glyph glyph-name="Uacute" unicode="&#xda;" horiz-adv-x="606" 
d="M554 310q0 -89 -11 -150t-39 -99.5t-77.5 -55.5t-125.5 -17q-77 0 -125 17t-76 55.5t-38 99.5t-10 150v357h170v-407q0 -39 3 -67.5t12 -47.5t25.5 -28t42.5 -9q27 0 43 9t24.5 28t11 47.5t2.5 67.5v407h168v-357zM271 708l-58 78l186 168l82 -109z" />
    <glyph glyph-name="Ucircumflex" unicode="&#xdb;" horiz-adv-x="606" 
d="M554 310q0 -89 -11 -150t-39 -99.5t-77.5 -55.5t-125.5 -17q-77 0 -125 17t-76 55.5t-38 99.5t-10 150v357h170v-407q0 -39 3 -67.5t12 -47.5t25.5 -28t42.5 -9q27 0 43 9t24.5 28t11 47.5t2.5 67.5v407h168v-357zM424 712l-123 102l-125 -102l-65 65l137 150h111
l132 -148z" />
    <glyph glyph-name="Udieresis" unicode="&#xdc;" horiz-adv-x="606" 
d="M554 310q0 -89 -11 -150t-39 -99.5t-77.5 -55.5t-125.5 -17q-77 0 -125 17t-76 55.5t-38 99.5t-10 150v357h170v-407q0 -39 3 -67.5t12 -47.5t25.5 -28t42.5 -9q27 0 43 9t24.5 28t11 47.5t2.5 67.5v407h168v-357zM508 808q0 -35 -24 -59t-59 -24t-59 24t-24 59t24 59
t59 24t59 -24t24 -59zM260 808q0 -35 -23 -59t-58 -24q-17 0 -32.5 6.5t-27 17.5t-18 26t-6.5 33t6.5 33t18 26t27 17.5t32.5 6.5q35 0 58 -24t23 -59z" />
    <glyph glyph-name="Yacute" unicode="&#xdd;" horiz-adv-x="580" 
d="M376 258v-258h-172v258l-212 409h188l116 -267l115 267h177zM260 708l-58 78l186 168l82 -109z" />
    <glyph glyph-name="Thorn" unicode="&#xde;" horiz-adv-x="581" 
d="M63 0v667h171v-107h37q84 0 139 -14t88 -41.5t46 -67t13 -90.5q0 -108 -72 -160t-200 -52h-51v-135h-171zM383 347q0 51 -26 75.5t-74 24.5h-49v-201h49q51 0 75.5 26.5t24.5 74.5z" />
    <glyph glyph-name="germandbls" unicode="&#xdf;" horiz-adv-x="627" 
d="M603 175q0 -85 -53.5 -135t-148.5 -50q-43 0 -79.5 7t-65.5 18l18 94q14 -5 35 -9.5t44 -4.5q15 0 29.5 3t25 10.5t17 20t6.5 31.5q0 21 -12.5 38t-30.5 32t-40 31t-40 35t-30.5 43t-12.5 57q0 36 12.5 57t28 37.5t28 33.5t12.5 44q0 31 -13.5 50t-45.5 19
q-40 0 -54 -22.5t-14 -74.5v-540h-167v554q0 94 59.5 141t172.5 47q110 0 166.5 -39t56.5 -120q0 -38 -12.5 -61t-28 -39t-28 -30.5t-12.5 -36.5q0 -17 13 -31t33 -28.5t42.5 -31t42.5 -37.5t33 -48.5t13 -64.5z" />
    <glyph glyph-name="agrave" unicode="&#xe0;" horiz-adv-x="547" 
d="M353 0l-14 65q-9 -10 -23 -23t-34 -24.5t-46 -19.5t-60 -8q-32 0 -60 8.5t-49 27t-33 48t-12 70.5q0 98 75.5 142.5t216.5 44.5h18v5q0 33 -8 51.5t-21.5 27.5t-31.5 11t-38 2q-35 0 -77 -8t-83 -22l-20 100q47 17 101.5 28.5t107.5 11.5t97 -10t75 -32.5t48 -58
t17 -87.5v-350h-146zM332 250h-31q-63 0 -91 -21t-28 -69q0 -32 13 -49t44 -17q37 0 59.5 18.5t33.5 33.5v104zM332 585l-210 137l81 109l186 -168z" />
    <glyph glyph-name="aacute" unicode="&#xe1;" horiz-adv-x="547" 
d="M353 0l-14 65q-9 -10 -23 -23t-34 -24.5t-46 -19.5t-60 -8q-32 0 -60 8.5t-49 27t-33 48t-12 70.5q0 98 75.5 142.5t216.5 44.5h18v5q0 33 -8 51.5t-21.5 27.5t-31.5 11t-38 2q-35 0 -77 -8t-83 -22l-20 100q47 17 101.5 28.5t107.5 11.5t97 -10t75 -32.5t48 -58
t17 -87.5v-350h-146zM332 250h-31q-63 0 -91 -21t-28 -69q0 -32 13 -49t44 -17q37 0 59.5 18.5t33.5 33.5v104zM243 585l-58 78l186 168l82 -109z" />
    <glyph glyph-name="acircumflex" unicode="&#xe2;" horiz-adv-x="547" 
d="M353 0l-14 65q-9 -10 -23 -23t-34 -24.5t-46 -19.5t-60 -8q-32 0 -60 8.5t-49 27t-33 48t-12 70.5q0 98 75.5 142.5t216.5 44.5h18v5q0 33 -8 51.5t-21.5 27.5t-31.5 11t-38 2q-35 0 -77 -8t-83 -22l-20 100q47 17 101.5 28.5t107.5 11.5t97 -10t75 -32.5t48 -58
t17 -87.5v-350h-146zM332 250h-31q-63 0 -91 -21t-28 -69q0 -32 13 -49t44 -17q37 0 59.5 18.5t33.5 33.5v104zM396 589l-123 102l-125 -102l-65 65l137 150h111l132 -148z" />
    <glyph glyph-name="atilde" unicode="&#xe3;" horiz-adv-x="547" 
d="M353 0l-14 65q-9 -10 -23 -23t-34 -24.5t-46 -19.5t-60 -8q-32 0 -60 8.5t-49 27t-33 48t-12 70.5q0 98 75.5 142.5t216.5 44.5h18v5q0 33 -8 51.5t-21.5 27.5t-31.5 11t-38 2q-35 0 -77 -8t-83 -22l-20 100q47 17 101.5 28.5t107.5 11.5t97 -10t75 -32.5t48 -58
t17 -87.5v-350h-146zM332 250h-31q-63 0 -91 -21t-28 -69q0 -32 13 -49t44 -17q37 0 59.5 18.5t33.5 33.5v104zM496 712q-17 -21 -32.5 -41t-32.5 -35.5t-38 -25t-48 -9.5q-22 0 -42.5 7.5t-39 17t-35.5 17t-33 7.5q-23 0 -45 -15.5t-34 -30.5l-65 46q17 21 32.5 41t32.5 35
t38 24.5t48 9.5q21 0 40.5 -7.5t38 -17t36 -17t34.5 -7.5q23 0 45.5 15.5t34.5 30.5z" />
    <glyph glyph-name="adieresis" unicode="&#xe4;" horiz-adv-x="547" 
d="M353 0l-14 65q-9 -10 -23 -23t-34 -24.5t-46 -19.5t-60 -8q-32 0 -60 8.5t-49 27t-33 48t-12 70.5q0 98 75.5 142.5t216.5 44.5h18v5q0 33 -8 51.5t-21.5 27.5t-31.5 11t-38 2q-35 0 -77 -8t-83 -22l-20 100q47 17 101.5 28.5t107.5 11.5t97 -10t75 -32.5t48 -58
t17 -87.5v-350h-146zM332 250h-31q-63 0 -91 -21t-28 -69q0 -32 13 -49t44 -17q37 0 59.5 18.5t33.5 33.5v104zM480 685q0 -35 -24 -59t-59 -24t-59 24t-24 59t24 59t59 24t59 -24t24 -59zM232 685q0 -35 -23 -59t-58 -24q-17 0 -32.5 6.5t-27 17.5t-18 26t-6.5 33t6.5 33
t18 26t27 17.5t32.5 6.5q35 0 58 -24t23 -59z" />
    <glyph glyph-name="aring" unicode="&#xe5;" horiz-adv-x="547" 
d="M353 0l-14 65q-9 -10 -23 -23t-34 -24.5t-46 -19.5t-60 -8q-32 0 -60 8.5t-49 27t-33 48t-12 70.5q0 98 75.5 142.5t216.5 44.5h18v5q0 33 -8 51.5t-21.5 27.5t-31.5 11t-38 2q-35 0 -77 -8t-83 -22l-20 100q47 17 101.5 28.5t107.5 11.5t97 -10t75 -32.5t48 -58
t17 -87.5v-350h-146zM332 250h-31q-63 0 -91 -21t-28 -69q0 -32 13 -49t44 -17q37 0 59.5 18.5t33.5 33.5v104zM405 721q0 -27 -10 -51t-27.5 -42t-41.5 -28.5t-52 -10.5t-52 10.5t-42 28.5t-28 42t-10 51t10 51t28 42t42 28t52 10t52 -10t41.5 -28t27.5 -42t10 -51z
M330 721q0 23 -15 40t-41 17t-41.5 -17t-15.5 -40t15.5 -40.5t41.5 -17.5t41 17t15 41z" />
    <glyph glyph-name="ae" unicode="&#xe6;" horiz-adv-x="844" 
d="M818 268v-18.5t-1 -18.5h-321q1 -36 10 -61t24 -40t35 -21.5t44 -6.5q28 0 67 8t81 29l34 -98q-11 -8 -31.5 -17t-48.5 -16.5t-62 -12.5t-72 -5q-57 0 -105 18t-82 62q-33 -34 -83 -57t-129 -23q-33 0 -61.5 8.5t-49.5 27t-33 48t-12 70.5q0 96 72 141.5t214 45.5h24v5
q0 33 -8 51.5t-21.5 27.5t-31.5 11t-38 2q-35 0 -77 -8t-83 -22l-20 100q47 17 101.5 28.5t107.5 11.5q56 0 101.5 -18t65.5 -48q22 30 64.5 48t85.5 18q52 0 96 -16t75.5 -49t49.5 -84t18 -121zM648 318q-1 41 -8 65t-17.5 36t-23.5 15.5t-25 3.5t-25.5 -4.5t-25 -17.5
t-19 -36.5t-8.5 -61.5h152zM345 149q-11 37 -13 101h-31q-63 0 -91 -21t-28 -69q0 -32 13 -49t44 -17q38 0 63.5 18t42.5 37z" />
    <glyph glyph-name="ccedilla" unicode="&#xe7;" horiz-adv-x="433" 
d="M432 22q-29 -12 -69 -22t-91 -10h-6l-7 -32q4 1 9.5 2t14.5 1q39 0 64.5 -21.5t25.5 -66.5q0 -51 -38.5 -77t-103.5 -26q-23 0 -49.5 4t-40.5 9l20 62q11 -4 26 -7t32 -3q24 0 37.5 9t13.5 29q0 29 -50 29q-12 0 -24 -1t-17 -3l27 98q-88 15 -131 79.5t-43 188.5
q0 144 59.5 209t180.5 65q51 0 87 -8.5t63 -19.5l-33 -97q-19 8 -41 13t-45 5q-26 0 -45 -8.5t-31 -28t-17.5 -51.5t-5.5 -79q0 -92 23 -128t74 -36q25 0 50.5 6t46.5 14z" />
    <glyph glyph-name="egrave" unicode="&#xe8;" horiz-adv-x="549" 
d="M523 268v-18t-1 -19h-321q1 -36 10 -61t24 -40t35 -21.5t44 -6.5q28 0 67 8t81 29l34 -98q-11 -8 -31.5 -17t-48.5 -16.5t-62 -12.5t-72 -5q-51 0 -96.5 13.5t-80 44.5t-54.5 81.5t-20 125.5q0 76 20.5 130t55 88t80 49.5t95.5 15.5q53 0 97 -16t76 -49t50 -84t18 -121z
M353 318q-1 41 -8 65t-17.5 36t-23.5 15.5t-25 3.5t-25.5 -4.5t-25 -17.5t-19 -36.5t-8.5 -61.5h152zM336 585l-210 137l81 109l186 -168z" />
    <glyph glyph-name="eacute" unicode="&#xe9;" horiz-adv-x="549" 
d="M523 268v-18t-1 -19h-321q1 -36 10 -61t24 -40t35 -21.5t44 -6.5q28 0 67 8t81 29l34 -98q-11 -8 -31.5 -17t-48.5 -16.5t-62 -12.5t-72 -5q-51 0 -96.5 13.5t-80 44.5t-54.5 81.5t-20 125.5q0 76 20.5 130t55 88t80 49.5t95.5 15.5q53 0 97 -16t76 -49t50 -84t18 -121z
M353 318q-1 41 -8 65t-17.5 36t-23.5 15.5t-25 3.5t-25.5 -4.5t-25 -17.5t-19 -36.5t-8.5 -61.5h152zM247 585l-58 78l186 168l82 -109z" />
    <glyph glyph-name="ecircumflex" unicode="&#xea;" horiz-adv-x="549" 
d="M523 268v-18t-1 -19h-321q1 -36 10 -61t24 -40t35 -21.5t44 -6.5q28 0 67 8t81 29l34 -98q-11 -8 -31.5 -17t-48.5 -16.5t-62 -12.5t-72 -5q-51 0 -96.5 13.5t-80 44.5t-54.5 81.5t-20 125.5q0 76 20.5 130t55 88t80 49.5t95.5 15.5q53 0 97 -16t76 -49t50 -84t18 -121z
M353 318q-1 41 -8 65t-17.5 36t-23.5 15.5t-25 3.5t-25.5 -4.5t-25 -17.5t-19 -36.5t-8.5 -61.5h152zM400 589l-123 102l-125 -102l-65 65l137 150h111l132 -148z" />
    <glyph glyph-name="edieresis" unicode="&#xeb;" horiz-adv-x="549" 
d="M523 268v-18t-1 -19h-321q1 -36 10 -61t24 -40t35 -21.5t44 -6.5q28 0 67 8t81 29l34 -98q-11 -8 -31.5 -17t-48.5 -16.5t-62 -12.5t-72 -5q-51 0 -96.5 13.5t-80 44.5t-54.5 81.5t-20 125.5q0 76 20.5 130t55 88t80 49.5t95.5 15.5q53 0 97 -16t76 -49t50 -84t18 -121z
M353 318q-1 41 -8 65t-17.5 36t-23.5 15.5t-25 3.5t-25.5 -4.5t-25 -17.5t-19 -36.5t-8.5 -61.5h152zM483 685q0 -35 -24 -59t-59 -24t-59 24t-24 59t24 59t59 24t59 -24t24 -59zM235 685q0 -35 -23 -59t-58 -24q-17 0 -32.5 6.5t-27 17.5t-18 26t-6.5 33t6.5 33t18 26
t27 17.5t32.5 6.5q35 0 58 -24t23 -59z" />
    <glyph glyph-name="igrave" unicode="&#xec;" horiz-adv-x="271" 
d="M52 0v528h167v-528h-167zM196 585l-210 137l81 109l186 -168z" />
    <glyph glyph-name="iacute" unicode="&#xed;" horiz-adv-x="271" 
d="M52 0v528h167v-528h-167zM107 585l-58 78l186 168l82 -109z" />
    <glyph glyph-name="icircumflex" unicode="&#xee;" horiz-adv-x="271" 
d="M52 0v528h167v-528h-167zM260 589l-123 102l-125 -102l-65 65l137 150h111l132 -148z" />
    <glyph glyph-name="idieresis" unicode="&#xef;" horiz-adv-x="271" 
d="M52 0v528h167v-528h-167zM343 685q0 -35 -24 -59t-59 -24t-59 24t-24 59t24 59t59 24t59 -24t24 -59zM95 685q0 -35 -23 -59t-58 -24q-17 0 -32.5 6.5t-27 17.5t-18 26t-6.5 33t6.5 33t18 26t27 17.5t32.5 6.5q35 0 58 -24t23 -59z" />
    <glyph glyph-name="eth" unicode="&#xf0;" horiz-adv-x="571" 
d="M542 270q0 -147 -60.5 -213.5t-195.5 -66.5q-58 0 -105.5 13t-81 44t-52 82t-18.5 127q0 60 13 108.5t41 82.5t72 52.5t106 18.5q13 0 26 -1.5t25 -3.5q-8 17 -21 32.5t-27 30.5l-58 -44l-47 57l53 39q-15 13 -29 23.5t-27 18.5l78 74q40 -17 78 -44l59 44l48 -58
l-47 -33q79 -73 124.5 -172t45.5 -211zM370 256q0 88 -17.5 127t-66.5 39t-67 -39t-18 -127q0 -89 18 -126.5t67 -37.5q24 0 40.5 9t26 28.5t13.5 51t4 75.5z" />
    <glyph glyph-name="eth" unicode="&#x2202;" horiz-adv-x="571" 
d="M542 270q0 -147 -60.5 -213.5t-195.5 -66.5q-58 0 -105.5 13t-81 44t-52 82t-18.5 127q0 60 13 108.5t41 82.5t72 52.5t106 18.5q13 0 26 -1.5t25 -3.5q-8 17 -21 32.5t-27 30.5l-58 -44l-47 57l53 39q-15 13 -29 23.5t-27 18.5l78 74q40 -17 78 -44l59 44l48 -58
l-47 -33q79 -73 124.5 -172t45.5 -211zM370 256q0 88 -17.5 127t-66.5 39t-67 -39t-18 -127q0 -89 18 -126.5t67 -37.5q24 0 40.5 9t26 28.5t13.5 51t4 75.5z" />
    <glyph glyph-name="ntilde" unicode="&#xf1;" horiz-adv-x="596" 
d="M382 0v299q0 33 -2 55t-8 35.5t-17 19t-30 5.5q-14 0 -29.5 -4.5t-30 -12t-27 -16.5t-21.5 -17v-364h-166v528h147l12 -67q10 9 29 22.5t43.5 25.5t54.5 20.5t63 8.5q43 0 71.5 -13.5t45.5 -37.5t24.5 -57t7.5 -72v-358h-167zM520 712q-17 -21 -32.5 -41t-32.5 -35.5
t-38 -25t-48 -9.5q-22 0 -42.5 7.5t-39 17t-35.5 17t-33 7.5q-23 0 -45 -15.5t-34 -30.5l-65 46q17 21 32.5 41t32.5 35t38 24.5t48 9.5q21 0 40.5 -7.5t38 -17t36 -17t34.5 -7.5q23 0 45.5 15.5t34.5 30.5z" />
    <glyph glyph-name="ograve" unicode="&#xf2;" horiz-adv-x="574" 
d="M543 264q0 -80 -18.5 -132.5t-52 -84t-80.5 -44.5t-105 -13t-105 13t-80.5 44.5t-52 84t-18.5 132.5t18.5 132.5t52 84t80.5 44.5t105 13t105 -13t80.5 -44.5t52 -84t18.5 -132.5zM372 264q0 93 -18 132.5t-67 39.5t-67 -39.5t-18 -132.5t18 -132.5t67 -39.5t67 39.5
t18 132.5zM346 585l-210 137l81 109l186 -168z" />
    <glyph glyph-name="oacute" unicode="&#xf3;" horiz-adv-x="574" 
d="M543 264q0 -80 -18.5 -132.5t-52 -84t-80.5 -44.5t-105 -13t-105 13t-80.5 44.5t-52 84t-18.5 132.5t18.5 132.5t52 84t80.5 44.5t105 13t105 -13t80.5 -44.5t52 -84t18.5 -132.5zM372 264q0 93 -18 132.5t-67 39.5t-67 -39.5t-18 -132.5t18 -132.5t67 -39.5t67 39.5
t18 132.5zM257 585l-58 78l186 168l82 -109z" />
    <glyph glyph-name="ocircumflex" unicode="&#xf4;" horiz-adv-x="574" 
d="M543 264q0 -80 -18.5 -132.5t-52 -84t-80.5 -44.5t-105 -13t-105 13t-80.5 44.5t-52 84t-18.5 132.5t18.5 132.5t52 84t80.5 44.5t105 13t105 -13t80.5 -44.5t52 -84t18.5 -132.5zM372 264q0 93 -18 132.5t-67 39.5t-67 -39.5t-18 -132.5t18 -132.5t67 -39.5t67 39.5
t18 132.5zM410 589l-123 102l-125 -102l-65 65l137 150h111l132 -148z" />
    <glyph glyph-name="otilde" unicode="&#xf5;" horiz-adv-x="574" 
d="M543 264q0 -80 -18.5 -132.5t-52 -84t-80.5 -44.5t-105 -13t-105 13t-80.5 44.5t-52 84t-18.5 132.5t18.5 132.5t52 84t80.5 44.5t105 13t105 -13t80.5 -44.5t52 -84t18.5 -132.5zM372 264q0 93 -18 132.5t-67 39.5t-67 -39.5t-18 -132.5t18 -132.5t67 -39.5t67 39.5
t18 132.5zM509 712q-17 -21 -32.5 -41t-32.5 -35.5t-38 -25t-48 -9.5q-22 0 -42.5 7.5t-39 17t-35.5 17t-33 7.5q-23 0 -45 -15.5t-34 -30.5l-65 46q17 21 32.5 41t32.5 35t38 24.5t48 9.5q21 0 40.5 -7.5t38 -17t36 -17t34.5 -7.5q23 0 45.5 15.5t34.5 30.5z" />
    <glyph glyph-name="odieresis" unicode="&#xf6;" horiz-adv-x="574" 
d="M543 264q0 -80 -18.5 -132.5t-52 -84t-80.5 -44.5t-105 -13t-105 13t-80.5 44.5t-52 84t-18.5 132.5t18.5 132.5t52 84t80.5 44.5t105 13t105 -13t80.5 -44.5t52 -84t18.5 -132.5zM372 264q0 93 -18 132.5t-67 39.5t-67 -39.5t-18 -132.5t18 -132.5t67 -39.5t67 39.5
t18 132.5zM493 685q0 -35 -24 -59t-59 -24t-59 24t-24 59t24 59t59 24t59 -24t24 -59zM245 685q0 -35 -23 -59t-58 -24q-17 0 -32.5 6.5t-27 17.5t-18 26t-6.5 33t6.5 33t18 26t27 17.5t32.5 6.5q35 0 58 -24t23 -59z" />
    <glyph glyph-name="divide" unicode="&#xf7;" horiz-adv-x="550" 
d="M368 539q0 -20 -7.5 -37.5t-20 -30t-30 -20t-36.5 -7.5q-20 0 -37 7.5t-30 20t-20.5 30t-7.5 37.5t7.5 37.5t20.5 30t30 20t37 7.5q19 0 36.5 -7.5t30 -20t20 -30t7.5 -37.5zM44 271v119h461v-119h-461zM368 122q0 -20 -7.5 -37.5t-20 -30t-30 -20t-36.5 -7.5
q-20 0 -37 7.5t-30 20t-20.5 30t-7.5 37.5t7.5 37t20.5 30t30 20t37 7q39 0 66.5 -27t27.5 -67z" />
    <glyph glyph-name="oslash" unicode="&#xf8;" horiz-adv-x="574" 
d="M543 264q0 -80 -18.5 -132.5t-52 -84t-80.5 -44.5t-105 -13q-45 0 -83.5 7.5t-70.5 25.5l-50 -60l-58 48l53 63q-23 32 -35 78.5t-12 111.5q0 80 18.5 132.5t52 84t80.5 44.5t105 13q45 0 83.5 -7.5t69.5 -25.5l46 55l58 -49l-48 -57q23 -32 35 -78.5t12 -111.5zM371 305
l-149 -177q6 -12 20.5 -24t44.5 -12q49 0 67 39.5t18 132.5zM202 264v-21.5t1 -20.5l149 179q-8 14 -22.5 24.5t-42.5 10.5q-49 0 -67 -39.5t-18 -132.5z" />
    <glyph glyph-name="ugrave" unicode="&#xf9;" horiz-adv-x="595" 
d="M400 0l-14 67q-11 -9 -29 -22.5t-42 -25.5t-53.5 -20.5t-62.5 -8.5q-43 0 -72 13.5t-46.5 37.5t-25 57t-7.5 72v358h167v-298q0 -33 2 -55t8.5 -35.5t18 -19t30.5 -5.5q14 0 29 5.5t29 13.5t26 17.5t21 17.5v359h167v-528h-146zM355 585l-210 137l81 109l186 -168z" />
    <glyph glyph-name="uacute" unicode="&#xfa;" horiz-adv-x="595" 
d="M400 0l-14 67q-11 -9 -29 -22.5t-42 -25.5t-53.5 -20.5t-62.5 -8.5q-43 0 -72 13.5t-46.5 37.5t-25 57t-7.5 72v358h167v-298q0 -33 2 -55t8.5 -35.5t18 -19t30.5 -5.5q14 0 29 5.5t29 13.5t26 17.5t21 17.5v359h167v-528h-146zM267 585l-58 78l186 168l82 -109z" />
    <glyph glyph-name="ucircumflex" unicode="&#xfb;" horiz-adv-x="595" 
d="M400 0l-14 67q-11 -9 -29 -22.5t-42 -25.5t-53.5 -20.5t-62.5 -8.5q-43 0 -72 13.5t-46.5 37.5t-25 57t-7.5 72v358h167v-298q0 -33 2 -55t8.5 -35.5t18 -19t30.5 -5.5q14 0 29 5.5t29 13.5t26 17.5t21 17.5v359h167v-528h-146zM420 589l-123 102l-125 -102l-65 65
l137 150h111l132 -148z" />
    <glyph glyph-name="udieresis" unicode="&#xfc;" horiz-adv-x="595" 
d="M400 0l-14 67q-11 -9 -29 -22.5t-42 -25.5t-53.5 -20.5t-62.5 -8.5q-43 0 -72 13.5t-46.5 37.5t-25 57t-7.5 72v358h167v-298q0 -33 2 -55t8.5 -35.5t18 -19t30.5 -5.5q14 0 29 5.5t29 13.5t26 17.5t21 17.5v359h167v-528h-146zM501 685q0 -35 -24 -59t-59 -24t-59 24
t-24 59t24 59t59 24t59 -24t24 -59zM253 685q0 -35 -23 -59t-58 -24q-17 0 -32.5 6.5t-27 17.5t-18 26t-6.5 33t6.5 33t18 26t27 17.5t32.5 6.5q35 0 58 -24t23 -59z" />
    <glyph glyph-name="yacute" unicode="&#xfd;" horiz-adv-x="525" 
d="M323 -37q-23 -65 -43 -101t-41 -54t-43 -22t-49 -4q-55 0 -89 18l22 109q5 -2 19 -5t29 -3q17 0 31 15.5t28 57.5q1 3 2 7q1 3 2 5t1 3l-189 539h172l89 -366l94 366h164zM234 585l-58 78l186 168l82 -109z" />
    <glyph glyph-name="thorn" unicode="&#xfe;" horiz-adv-x="602" 
d="M571 262q0 -78 -17.5 -129.5t-45 -82.5t-61.5 -44t-67 -13q-44 0 -84.5 9t-78.5 37v-247h-165v936h166v-279q38 43 85 65.5t92 22.5q32 0 63.5 -13.5t56.5 -45t40.5 -84.5t15.5 -132zM399 259q0 46 -5 77t-15.5 49t-26 25.5t-36.5 7.5q-20 0 -49 -18t-49 -45v-227
q22 -20 47.5 -28t48.5 -8q41 0 63 37.5t22 129.5z" />
    <glyph glyph-name="ydieresis" unicode="&#xff;" horiz-adv-x="525" 
d="M323 -37q-23 -65 -43 -101t-41 -54t-43 -22t-49 -4q-55 0 -89 18l22 109q5 -2 19 -5t29 -3q17 0 31 15.5t28 57.5q1 3 2 7q1 3 2 5t1 3l-189 539h172l89 -366l94 366h164zM470 685q0 -35 -24 -59t-59 -24t-59 24t-24 59t24 59t59 24t59 -24t24 -59zM222 685
q0 -35 -23 -59t-58 -24q-17 0 -32.5 6.5t-27 17.5t-18 26t-6.5 33t6.5 33t18 26t27 17.5t32.5 6.5q35 0 58 -24t23 -59z" />
    <glyph glyph-name="Amacron" unicode="&#x100;" 
d="M436 0l-29 102h-199l-29 -102h-173l204 667h208l202 -667h-184zM308 515l-75 -302h150zM138 750v97h347v-97h-347z" />
    <glyph glyph-name="amacron" unicode="&#x101;" horiz-adv-x="547" 
d="M353 0l-14 65q-9 -10 -23 -23t-34 -24.5t-46 -19.5t-60 -8q-32 0 -60 8.5t-49 27t-33 48t-12 70.5q0 98 75.5 142.5t216.5 44.5h18v5q0 33 -8 51.5t-21.5 27.5t-31.5 11t-38 2q-35 0 -77 -8t-83 -22l-20 100q47 17 101.5 28.5t107.5 11.5t97 -10t75 -32.5t48 -58
t17 -87.5v-350h-146zM332 250h-31q-63 0 -91 -21t-28 -69q0 -32 13 -49t44 -17q37 0 59.5 18.5t33.5 33.5v104zM100 628v97h347v-97h-347z" />
    <glyph glyph-name="Abreve" unicode="&#x102;" 
d="M436 0l-29 102h-199l-29 -102h-173l204 667h208l202 -667h-184zM308 515l-75 -302h150zM484 885q-1 -83 -45.5 -126t-126.5 -43t-127 43t-45 126h89q0 -28 19.5 -50t63.5 -22q45 0 64 22t20 50h88z" />
    <glyph glyph-name="abreve" unicode="&#x103;" horiz-adv-x="547" 
d="M353 0l-14 65q-9 -10 -23 -23t-34 -24.5t-46 -19.5t-60 -8q-32 0 -60 8.5t-49 27t-33 48t-12 70.5q0 98 75.5 142.5t216.5 44.5h18v5q0 33 -8 51.5t-21.5 27.5t-31.5 11t-38 2q-35 0 -77 -8t-83 -22l-20 100q47 17 101.5 28.5t107.5 11.5t97 -10t75 -32.5t48 -58
t17 -87.5v-350h-146zM332 250h-31q-63 0 -91 -21t-28 -69q0 -32 13 -49t44 -17q37 0 59.5 18.5t33.5 33.5v104zM446 762q-1 -83 -45.5 -126t-126.5 -43t-127 43t-45 126h89q0 -28 19.5 -50t63.5 -22q45 0 64 22t20 50h88z" />
    <glyph glyph-name="Aogonek" unicode="&#x104;" 
d="M559 0q-16 0 -36 -9.5t-37 -24.5t-29 -34t-12 -39q0 -45 53 -45q21 0 39.5 7t27.5 12l23 -66q-8 -3 -20 -8t-28 -10t-35.5 -9t-41.5 -4q-62 0 -92.5 27.5t-30.5 71.5q0 19 8 37t21.5 34.5t31 31.5t35.5 28l-29 102h-199l-29 -102h-173l204 667h208l202 -667h-61zM308 515
l-75 -302h150z" />
    <glyph glyph-name="aogonek" unicode="&#x105;" horiz-adv-x="547" 
d="M505 -199q-8 -3 -20 -8t-28 -10t-35.5 -9t-41.5 -4q-62 0 -92.5 27.5t-30.5 71.5q0 19 8 37t21.5 34.5t31 31.5t35.5 28l-14 65q-9 -10 -23 -23t-34 -24.5t-46 -19.5t-60 -8q-32 0 -60 8.5t-49 27t-33 48t-12 70.5q0 98 75.5 142.5t216.5 44.5h18v5q0 33 -8 51.5
t-21.5 27.5t-31.5 11t-38 2q-35 0 -77 -8t-83 -22l-20 100q47 17 101.5 28.5t107.5 11.5t97 -10t75 -32.5t48 -58t17 -87.5v-350h-24q-16 0 -35.5 -9.5t-37 -24.5t-29 -34t-11.5 -39q0 -45 53 -45q21 0 39.5 7t27.5 12zM332 250h-31q-63 0 -91 -21t-28 -69q0 -32 13 -49
t44 -17q37 0 59.5 18.5t33.5 33.5v104z" />
    <glyph glyph-name="Cacute" unicode="&#x106;" horiz-adv-x="505" 
d="M484 20q-33 -14 -72.5 -23t-93.5 -9q-75 0 -128 19t-86.5 60.5t-49.5 107.5t-16 159q0 90 15 155.5t48 107.5t85 62t127 20q56 0 94 -9.5t68 -19.5l-33 -111q-23 8 -47 13.5t-51 5.5q-69 0 -100.5 -53.5t-31.5 -170.5q0 -106 30 -163.5t101 -57.5q28 0 54.5 6t52.5 16z
M260 708l-58 78l186 168l82 -109z" />
    <glyph glyph-name="cacute" unicode="&#x107;" horiz-adv-x="433" 
d="M432 22q-29 -12 -69 -22t-91 -10q-121 0 -180.5 65t-59.5 209t59.5 209t180.5 65q51 0 87 -8.5t63 -19.5l-33 -102q-19 8 -41 13t-45 5q-26 0 -45 -7.5t-31 -26.5t-17.5 -50t-5.5 -78q0 -46 5.5 -76.5t17.5 -49t30 -26t44 -7.5q25 0 50.5 6t46.5 14zM217 585l-58 78
l186 168l82 -109z" />
    <glyph glyph-name="Cdotaccent" unicode="&#x10a;" horiz-adv-x="505" 
d="M484 20q-33 -14 -72.5 -23t-93.5 -9q-75 0 -128 19t-86.5 60.5t-49.5 107.5t-16 159q0 90 15 155.5t48 107.5t85 62t127 20q56 0 94 -9.5t68 -19.5l-33 -111q-23 8 -47 13.5t-51 5.5q-69 0 -100.5 -53.5t-31.5 -170.5q0 -106 30 -163.5t101 -57.5q28 0 54.5 6t52.5 16z
M384 811q0 -40 -27.5 -67t-66.5 -27q-20 0 -37 7t-30 20t-20.5 30t-7.5 37t7.5 37.5t20.5 30t30 20t37 7.5q19 0 36.5 -7.5t30 -20t20 -30t7.5 -37.5z" />
    <glyph glyph-name="cdotaccent" unicode="&#x10b;" horiz-adv-x="433" 
d="M432 22q-29 -12 -69 -22t-91 -10q-121 0 -180.5 65t-59.5 209t59.5 209t180.5 65q51 0 87 -8.5t63 -19.5l-33 -102q-19 8 -41 13t-45 5q-26 0 -45 -7.5t-31 -26.5t-17.5 -50t-5.5 -78q0 -46 5.5 -76.5t17.5 -49t30 -26t44 -7.5q25 0 50.5 6t46.5 14zM347 688
q0 -40 -27.5 -67t-66.5 -27q-20 0 -37 7t-30 20t-20.5 30t-7.5 37t7.5 37.5t20.5 30t30 20t37 7.5q19 0 36.5 -7.5t30 -20t20 -30t7.5 -37.5z" />
    <glyph glyph-name="Ccaron" unicode="&#x10c;" horiz-adv-x="505" 
d="M484 20q-33 -14 -72.5 -23t-93.5 -9q-75 0 -128 19t-86.5 60.5t-49.5 107.5t-16 159q0 90 15 155.5t48 107.5t85 62t127 20q56 0 94 -9.5t68 -19.5l-33 -111q-23 8 -47 13.5t-51 5.5q-69 0 -100.5 -53.5t-31.5 -170.5q0 -106 30 -163.5t101 -57.5q28 0 54.5 6t52.5 16z
M344 719h-112l-132 149l67 67l123 -102l124 102l66 -66z" />
    <glyph glyph-name="ccaron" unicode="&#x10d;" horiz-adv-x="433" 
d="M432 22q-29 -12 -69 -22t-91 -10q-121 0 -180.5 65t-59.5 209t59.5 209t180.5 65q51 0 87 -8.5t63 -19.5l-33 -102q-19 8 -41 13t-45 5q-26 0 -45 -7.5t-31 -26.5t-17.5 -50t-5.5 -78q0 -46 5.5 -76.5t17.5 -49t30 -26t44 -7.5q25 0 50.5 6t46.5 14zM308 596h-112
l-132 149l67 67l123 -102l124 102l66 -66z" />
    <glyph glyph-name="Dcaron" unicode="&#x10e;" horiz-adv-x="611" 
d="M573 334q0 -77 -9 -131.5t-26.5 -92t-44.5 -59t-62.5 -33t-79.5 -15t-97 -3.5h-191v667h191q79 0 139 -9t100 -42.5t60 -100t20 -181.5zM400 334q0 60 -6 102t-20 68t-38 37.5t-60 11.5h-43v-439h43q36 0 60 11.5t38 37.5t20 68t6 103zM360 719h-112l-132 149l67 67
l123 -102l124 102l66 -66z" />
    <glyph glyph-name="dcaron" unicode="&#x10f;" horiz-adv-x="601" 
d="M403 0l-14 82q-42 -47 -90 -69.5t-93 -22.5q-32 0 -63.5 13t-56.5 44.5t-40.5 84t-15.5 130.5q0 76 17 129t44 85.5t61.5 47t70.5 14.5q77 0 160 -46v237h166v-729h-146zM383 383q-21 15 -46.5 24.5t-49.5 9.5q-21 0 -36.5 -6t-26.5 -22.5t-16.5 -46t-5.5 -75.5
q0 -47 5 -76.5t15.5 -46.5t26 -23.5t36.5 -6.5q24 0 52 20t46 46v203zM742 768q0 -22 -10 -44t-24 -45q-14 -22 -29.5 -43t-30.5 -42l-52 29q11 17 24 40t13 40q0 8 -4 15.5t-9 16t-9 18.5t-4 23q0 27 20 44.5t46 17.5q32 0 50.5 -20t18.5 -50z" />
    <glyph glyph-name="Dcroat" unicode="&#x110;" horiz-adv-x="619" 
d="M581 334q0 -77 -9 -131.5t-26.5 -92t-44.5 -59t-62.5 -33t-79.5 -15t-97 -3.5h-191v296h-65l-3 97h68v274h191q79 0 139 -9t100 -42.5t60 -100t20 -181.5zM408 334q0 61 -6 103t-20 68.5t-38 38.5t-60 12h-42v-163h82v-97h-82v-185h42q36 0 60 12t38 38t20 68.5t6 104.5z
" />
    <glyph glyph-name="dcroat" unicode="&#x111;" horiz-adv-x="602" 
d="M592 552h-43v-552h-146l-14 82q-42 -47 -90 -69.5t-93 -22.5q-32 0 -63.5 13t-56.5 44t-40.5 82.5t-15.5 127.5q0 75 17 126.5t44 83.5t61.5 46.5t70.5 14.5q78 0 161 -46v70h-56l-9 99h68l2 78h159v-78h56zM383 373q-21 15 -46.5 24.5t-49.5 9.5q-21 0 -36.5 -6
t-26.5 -22t-16.5 -44.5t-5.5 -72.5q0 -45 5 -73.5t15.5 -45t26 -23t36.5 -6.5q24 0 52 20t46 46v193z" />
    <glyph glyph-name="Emacron" unicode="&#x112;" horiz-adv-x="500" 
d="M63 0v667h414l-20 -124h-224v-143h178v-110h-178v-165h229l18 -125h-417zM91 751v97h347v-97h-347z" />
    <glyph glyph-name="emacron" unicode="&#x113;" horiz-adv-x="549" 
d="M523 268v-18t-1 -19h-321q1 -36 10 -61t24 -40t35 -21.5t44 -6.5q28 0 67 8t81 29l34 -98q-11 -8 -31.5 -17t-48.5 -16.5t-62 -12.5t-72 -5q-51 0 -96.5 13.5t-80 44.5t-54.5 81.5t-20 125.5q0 76 20.5 130t55 88t80 49.5t95.5 15.5q53 0 97 -16t76 -49t50 -84t18 -121z
M353 318q-1 41 -8 65t-17.5 36t-23.5 15.5t-25 3.5t-25.5 -4.5t-25 -17.5t-19 -36.5t-8.5 -61.5h152zM102 628v97h347v-97h-347z" />
    <glyph glyph-name="Edotaccent" unicode="&#x116;" horiz-adv-x="500" 
d="M63 0v667h414l-20 -124h-224v-143h178v-110h-178v-165h229l18 -125h-417zM359 811q0 -40 -27.5 -67t-66.5 -27q-20 0 -37 7t-30 20t-20.5 30t-7.5 37t7.5 37.5t20.5 30t30 20t37 7.5q19 0 36.5 -7.5t30 -20t20 -30t7.5 -37.5z" />
    <glyph glyph-name="edotaccent" unicode="&#x117;" horiz-adv-x="549" 
d="M523 268v-18t-1 -19h-321q1 -36 10 -61t24 -40t35 -21.5t44 -6.5q28 0 67 8t81 29l34 -98q-11 -8 -31.5 -17t-48.5 -16.5t-62 -12.5t-72 -5q-51 0 -96.5 13.5t-80 44.5t-54.5 81.5t-20 125.5q0 76 20.5 130t55 88t80 49.5t95.5 15.5q53 0 97 -16t76 -49t50 -84t18 -121z
M353 318q-1 41 -8 65t-17.5 36t-23.5 15.5t-25 3.5t-25.5 -4.5t-25 -17.5t-19 -36.5t-8.5 -61.5h152zM371 688q0 -40 -27.5 -67t-66.5 -27q-20 0 -37 7t-30 20t-20.5 30t-7.5 37t7.5 37.5t20.5 30t30 20t37 7.5q19 0 36.5 -7.5t30 -20t20 -30t7.5 -37.5z" />
    <glyph glyph-name="Eogonek" unicode="&#x118;" horiz-adv-x="500" 
d="M491 -199q-8 -3 -20 -8t-28 -10t-35.5 -9t-41.5 -4q-62 0 -92.5 27.5t-30.5 71.5q0 19 8.5 37.5t23 36t32.5 32t37 25.5h-281v667h414l-20 -124h-224v-143h178v-110h-178v-165h229l18 -125h-17q-17 0 -37 -9.5t-37 -24.5t-29 -34t-12 -39q0 -45 53 -45q21 0 39.5 7
t27.5 12z" />
    <glyph glyph-name="eogonek" unicode="&#x119;" horiz-adv-x="549" 
d="M523 268v-18t-1 -19h-321q1 -36 10 -61t24 -40t35 -21.5t44 -6.5q28 0 67 8t81 30l34 -98q-18 -12 -42.5 -28t-47 -35t-38 -40.5t-15.5 -45.5q0 -45 53 -45q21 0 39.5 7t27.5 12l23 -66q-8 -3 -20 -8t-28 -10t-35.5 -9t-41.5 -4q-62 0 -92.5 27.5t-30.5 71.5
q0 35 27.5 68t69.5 65q-20 -8 -34.5 -10t-28.5 -2q-51 0 -96.5 13.5t-80 44.5t-54.5 81.5t-20 125.5q0 76 20.5 130t55 88t80 49.5t95.5 15.5q53 0 97 -16t76 -49t50 -84t18 -121zM353 318q-1 41 -8 65t-17.5 36t-23.5 15.5t-25 3.5t-25.5 -4.5t-25 -17.5t-19 -36.5
t-8.5 -61.5h152z" />
    <glyph glyph-name="Ecaron" unicode="&#x11a;" horiz-adv-x="500" 
d="M63 0v667h414l-20 -124h-224v-143h178v-110h-178v-165h229l18 -125h-417zM319 719h-112l-132 149l67 67l123 -102l124 102l66 -66z" />
    <glyph glyph-name="ecaron" unicode="&#x11b;" horiz-adv-x="549" 
d="M523 268v-18t-1 -19h-321q1 -36 10 -61t24 -40t35 -21.5t44 -6.5q28 0 67 8t81 29l34 -98q-11 -8 -31.5 -17t-48.5 -16.5t-62 -12.5t-72 -5q-51 0 -96.5 13.5t-80 44.5t-54.5 81.5t-20 125.5q0 76 20.5 130t55 88t80 49.5t95.5 15.5q53 0 97 -16t76 -49t50 -84t18 -121z
M353 318q-1 41 -8 65t-17.5 36t-23.5 15.5t-25 3.5t-25.5 -4.5t-25 -17.5t-19 -36.5t-8.5 -61.5h152zM331 596h-112l-132 149l67 67l123 -102l124 102l66 -66z" />
    <glyph glyph-name="Gbreve" unicode="&#x11e;" horiz-adv-x="590" 
d="M540 31q-17 -8 -41.5 -16t-53 -14t-60.5 -9.5t-63 -3.5q-77 0 -131 20t-88.5 62t-50 107.5t-15.5 156.5q0 90 16.5 155.5t51 107.5t88.5 62t129 20q60 0 114 -14.5t88 -27.5l-38 -112q-14 6 -31.5 11.5t-35.5 9.5t-35.5 6.5t-30.5 2.5q-44 0 -72 -12.5t-43.5 -39.5
t-21 -69t-5.5 -100q0 -52 7 -93.5t23.5 -70t45 -43.5t71.5 -15q6 0 15 0.5t15 1.5v161h-60l-10 105h222v-349zM466 885q-1 -83 -45.5 -126t-126.5 -43t-127 43t-45 126h89q0 -28 19.5 -50t63.5 -22q45 0 64 22t20 50h88z" />
    <glyph glyph-name="gbreve" unicode="&#x11f;" horiz-adv-x="600" 
d="M549 25q0 -71 -18 -118t-51.5 -75t-81 -39t-106.5 -11q-58 0 -116 9t-111 29l22 109q45 -17 91.5 -23.5t77.5 -6.5q27 0 50 3.5t40.5 16t27 38t9.5 69.5v52q-35 -42 -82.5 -64.5t-94.5 -22.5q-33 0 -64.5 13.5t-56.5 45t-40 84t-15 129.5q0 76 17 128.5t44 85t61.5 47
t70.5 14.5q49 0 90 -16t76 -41l13 47h147v-503zM383 377q-20 15 -46 27.5t-50 12.5q-21 0 -36.5 -6t-26.5 -22.5t-16.5 -46t-5.5 -75.5q0 -47 4.5 -76.5t14.5 -46.5t24.5 -23.5t35.5 -6.5q13 0 28 6.5t29 17t25.5 24t19.5 27.5v188zM470 762q-1 -83 -45.5 -126t-126.5 -43
t-127 43t-45 126h89q0 -28 19.5 -50t63.5 -22q45 0 64 22t20 50h88z" />
    <glyph glyph-name="Gdotaccent" unicode="&#x120;" horiz-adv-x="590" 
d="M540 31q-17 -8 -41.5 -16t-53 -14t-60.5 -9.5t-63 -3.5q-77 0 -131 20t-88.5 62t-50 107.5t-15.5 156.5q0 90 16.5 155.5t51 107.5t88.5 62t129 20q60 0 114 -14.5t88 -27.5l-38 -112q-14 6 -31.5 11.5t-35.5 9.5t-35.5 6.5t-30.5 2.5q-44 0 -72 -12.5t-43.5 -39.5
t-21 -69t-5.5 -100q0 -52 7 -93.5t23.5 -70t45 -43.5t71.5 -15q6 0 15 0.5t15 1.5v161h-60l-10 105h222v-349zM401 811q0 -40 -27.5 -67t-66.5 -27q-20 0 -37 7t-30 20t-20.5 30t-7.5 37t7.5 37.5t20.5 30t30 20t37 7.5q19 0 36.5 -7.5t30 -20t20 -30t7.5 -37.5z" />
    <glyph glyph-name="gdotaccent" unicode="&#x121;" horiz-adv-x="600" 
d="M549 25q0 -71 -18 -118t-51.5 -75t-81 -39t-106.5 -11q-58 0 -116 9t-111 29l22 109q45 -17 91.5 -23.5t77.5 -6.5q27 0 50 3.5t40.5 16t27 38t9.5 69.5v52q-35 -42 -82.5 -64.5t-94.5 -22.5q-33 0 -64.5 13.5t-56.5 45t-40 84t-15 129.5q0 76 17 128.5t44 85t61.5 47
t70.5 14.5q49 0 90 -16t76 -41l13 47h147v-503zM383 377q-20 15 -46 27.5t-50 12.5q-21 0 -36.5 -6t-26.5 -22.5t-16.5 -46t-5.5 -75.5q0 -47 4.5 -76.5t14.5 -46.5t24.5 -23.5t35.5 -6.5q13 0 28 6.5t29 17t25.5 24t19.5 27.5v188zM394 688q0 -40 -27.5 -67t-66.5 -27
q-20 0 -37 7t-30 20t-20.5 30t-7.5 37t7.5 37.5t20.5 30t30 20t37 7.5q19 0 36.5 -7.5t30 -20t20 -30t7.5 -37.5z" />
    <glyph glyph-name="Gcommaaccent" unicode="&#x122;" horiz-adv-x="590" 
d="M540 31q-17 -8 -41.5 -16t-53 -14t-60.5 -9.5t-63 -3.5q-77 0 -131 20t-88.5 62t-50 107.5t-15.5 156.5q0 90 16.5 155.5t51 107.5t88.5 62t129 20q60 0 114 -14.5t88 -27.5l-38 -112q-14 6 -31.5 11.5t-35.5 9.5t-35.5 6.5t-30.5 2.5q-44 0 -72 -12.5t-43.5 -39.5
t-21 -69t-5.5 -100q0 -52 7 -93.5t23.5 -70t45 -43.5t71.5 -15q6 0 15 0.5t15 1.5v161h-60l-10 105h222v-349zM379 -106q0 -22 -10 -44t-24 -45q-14 -22 -29.5 -43t-30.5 -42l-52 29q11 17 24 40t13 40q0 8 -4 15.5t-9 16t-9 18.5t-4 23q0 27 20 44.5t46 17.5q32 0 50.5 -20
t18.5 -50z" />
    <glyph glyph-name="gcommaaccent" unicode="&#x123;" horiz-adv-x="600" 
d="M549 25q0 -71 -18 -118t-51.5 -75t-81 -39t-106.5 -11q-58 0 -116 9t-111 29l22 109q45 -17 91.5 -23.5t77.5 -6.5q27 0 50 3.5t40.5 16t27 38t9.5 69.5v52q-35 -42 -82.5 -64.5t-94.5 -22.5q-33 0 -64.5 13.5t-56.5 45t-40 84t-15 129.5q0 76 17 128.5t44 85t61.5 47
t70.5 14.5q49 0 90 -16t76 -41l13 47h147v-503zM383 377q-20 15 -46 27.5t-50 12.5q-21 0 -36.5 -6t-26.5 -22.5t-16.5 -46t-5.5 -75.5q0 -47 4.5 -76.5t14.5 -46.5t24.5 -23.5t35.5 -6.5q13 0 28 6.5t29 17t25.5 24t19.5 27.5v188zM233.021 663.993
q0 21.999 9.99902 43.998q10 21.998 23.999 44.9971q13.999 21.998 29.498 42.9971t30.498 41.9971l51.9971 -28.998q-10.999 -16.999 -23.998 -39.9971q-13 -22.999 -13 -39.998q0 -7.99902 4 -15.499q4 -7.49902 9 -15.999q4.99902 -8.49902 8.99902 -18.499
q4 -9.99902 4 -22.998q0 -26.998 -19.999 -44.4971t-45.9971 -17.499q-31.998 0 -50.4971 19.998q-18.499 19.999 -18.499 49.9971z" />
    <glyph glyph-name="Hbar" unicode="&#x126;" horiz-adv-x="661" 
d="M660 493h-65v-493h-170v281h-189v-281h-170v493h-65l-3 97h68v77h170v-77h189v77h170v-77h68zM425 493h-189v-88h189v88z" />
    <glyph glyph-name="hbar" unicode="&#x127;" horiz-adv-x="600" 
d="M-1 651h58l2 78h159v-78h135l-12 -99h-121v-98q10 9 27.5 22t41 24.5t52.5 19.5t62 8q43 0 71.5 -13.5t45.5 -37.5t24.5 -57.5t7.5 -72.5v-347h-167v290q0 33 -2 55t-8 35t-17 18.5t-30 5.5q-14 0 -29 -4.5t-29.5 -12t-27 -16.5t-21.5 -17v-354h-167v552h-46z" />
    <glyph glyph-name="Imacron" unicode="&#x12a;" horiz-adv-x="296" 
d="M63 0v667h170v-667h-170zM-24 752v97h347v-97h-347z" />
    <glyph glyph-name="imacron" unicode="&#x12b;" horiz-adv-x="271" 
d="M52 0v528h167v-528h-167zM-37 628v97h347v-97h-347z" />
    <glyph glyph-name="Iogonek" unicode="&#x12e;" horiz-adv-x="296" 
d="M272 -199q-8 -3 -20 -8t-28 -10t-35.5 -9t-41.5 -4q-62 0 -92.5 27.5t-30.5 71.5q0 19 8.5 37.5t23 36t32.5 32t37 25.5h-62v667h170v-667q-12 0 -30 -9.5t-34.5 -24.5t-28 -34t-11.5 -39q0 -45 53 -45q21 0 39.5 7t27.5 12z" />
    <glyph glyph-name="iogonek" unicode="&#x12f;" horiz-adv-x="271" 
d="M230 684q0 -40 -27.5 -67t-66.5 -27q-20 0 -37 7t-30 20t-20.5 30t-7.5 37t7.5 37.5t20.5 30t30 20t37 7.5q19 0 36.5 -7.5t30 -20t20 -30t7.5 -37.5zM259 -199q-8 -3 -20 -8t-28 -10t-35.5 -9t-41.5 -4q-62 0 -92.5 27.5t-30.5 71.5q0 19 8.5 37.5t23 36t32.5 32
t37 25.5h-60v528h167v-528q-12 0 -29.5 -9.5t-34 -24.5t-28 -34t-11.5 -39q0 -45 53 -45q21 0 39.5 7t27.5 12z" />
    <glyph glyph-name="Idotaccent" unicode="&#x130;" horiz-adv-x="296" 
d="M63 0v667h170v-667h-170zM244 811q0 -40 -27.5 -67t-66.5 -27q-20 0 -37 7t-30 20t-20.5 30t-7.5 37t7.5 37.5t20.5 30t30 20t37 7.5q19 0 36.5 -7.5t30 -20t20 -30t7.5 -37.5z" />
    <glyph glyph-name="dotlessi" unicode="&#x131;" horiz-adv-x="271" 
d="M52 0v528h167v-528h-167z" />
    <glyph glyph-name="Kcommaaccent" unicode="&#x136;" horiz-adv-x="606" 
d="M401 0l-168 300v-300h-170v667h170v-277l163 277h187l-200 -314l226 -353h-208zM374 -106q0 -22 -10 -44t-24 -45q-14 -22 -29.5 -43t-30.5 -42l-52 29q11 17 24 40t13 40q0 8 -4 15.5t-9 16t-9 18.5t-4 23q0 27 20 44.5t46 17.5q32 0 50.5 -20t18.5 -50z" />
    <glyph glyph-name="kcommaaccent" unicode="&#x137;" horiz-adv-x="572" 
d="M389 0l-170 242v-242h-167v729h167v-401l161 200h185l-201 -233l227 -295h-202zM357 -106q0 -22 -10 -44t-24 -45q-14 -22 -29.5 -43t-30.5 -42l-52 29q11 17 24 40t13 40q0 8 -4 15.5t-9 16t-9 18.5t-4 23q0 27 20 44.5t46 17.5q32 0 50.5 -20t18.5 -50z" />
    <glyph glyph-name="Lacute" unicode="&#x139;" horiz-adv-x="451" 
d="M63 0v667h170v-530h197l17 -137h-384zM197 708l-58 78l186 168l82 -109z" />
    <glyph glyph-name="lacute" unicode="&#x13a;" horiz-adv-x="271" 
d="M52 0v729h167v-729h-167zM107 769l-58 78l186 168l82 -109z" />
    <glyph glyph-name="Lcommaaccent" unicode="&#x13b;" horiz-adv-x="451" 
d="M63 0v667h170v-530h197l17 -137h-384zM299 -106q0 -22 -10 -44t-24 -45q-14 -22 -29.5 -43t-30.5 -42l-52 29q11 17 24 40t13 40q0 8 -4 15.5t-9 16t-9 18.5t-4 23q0 27 20 44.5t46 17.5q32 0 50.5 -20t18.5 -50z" />
    <glyph glyph-name="lcommaaccent" unicode="&#x13c;" horiz-adv-x="271" 
d="M52 0v729h167v-729h-167zM207 -106q0 -22 -10 -44t-24 -45q-14 -22 -29.5 -43t-30.5 -42l-52 29q11 17 24 40t13 40q0 8 -4 15.5t-9 16t-9 18.5t-4 23q0 27 20 44.5t46 17.5q32 0 50.5 -20t18.5 -50z" />
    <glyph glyph-name="Lcaron" unicode="&#x13d;" horiz-adv-x="451" 
d="M63 0v667h170v-530h197l17 -137h-384zM426 609q0 -22 -10 -44t-24 -45q-14 -22 -29.5 -43t-30.5 -42l-52 29q11 17 24 40t13 40q0 8 -4 15.5t-9 16t-9 18.5t-4 23q0 27 20 44.5t46 17.5q32 0 50.5 -20t18.5 -50z" />
    <glyph glyph-name="lcaron" unicode="&#x13e;" horiz-adv-x="271" 
d="M52 0v729h167v-729h-167zM412 768q0 -22 -10 -44t-24 -45q-14 -22 -29.5 -43t-30.5 -42l-52 29q11 17 24 40t13 40q0 8 -4 15.5t-9 16t-9 18.5t-4 23q0 27 20 44.5t46 17.5q32 0 50.5 -20t18.5 -50z" />
    <glyph glyph-name="Lslash" unicode="&#x141;" horiz-adv-x="466" 
d="M70 0v220l-43 -39l-49 61l92 80v345h172v-211l71 65l49 -62l-120 -106v-216h194l18 -137h-384z" />
    <glyph glyph-name="lslash" unicode="&#x142;" horiz-adv-x="316" 
d="M241 421v-421h-166v292l-38 -37l-51 59l89 83v332h166v-203l40 38l51 -59z" />
    <glyph glyph-name="Nacute" unicode="&#x143;" horiz-adv-x="636" 
d="M407 0l-194 404v-404h-150v667h163l197 -409v409h150v-667h-166zM288 708l-58 78l186 168l82 -109z" />
    <glyph glyph-name="nacute" unicode="&#x144;" horiz-adv-x="596" 
d="M382 0v299q0 33 -2 55t-8 35.5t-17 19t-30 5.5q-14 0 -29.5 -4.5t-30 -12t-27 -16.5t-21.5 -17v-364h-166v528h147l12 -67q10 9 29 22.5t43.5 25.5t54.5 20.5t63 8.5q43 0 71.5 -13.5t45.5 -37.5t24.5 -57t7.5 -72v-358h-167zM268 585l-58 78l186 168l82 -109z" />
    <glyph glyph-name="Ncommaaccent" unicode="&#x145;" horiz-adv-x="636" 
d="M407 0l-194 404v-404h-150v667h163l197 -409v409h150v-667h-166zM389 -106q0 -22 -10 -44t-24 -45q-14 -22 -29.5 -43t-30.5 -42l-52 29q11 17 24 40t13 40q0 8 -4 15.5t-9 16t-9 18.5t-4 23q0 27 20 44.5t46 17.5q32 0 50.5 -20t18.5 -50z" />
    <glyph glyph-name="ncommaaccent" unicode="&#x146;" horiz-adv-x="596" 
d="M382 0v299q0 33 -2 55t-8 35.5t-17 19t-30 5.5q-14 0 -29.5 -4.5t-30 -12t-27 -16.5t-21.5 -17v-364h-166v528h147l12 -67q10 9 29 22.5t43.5 25.5t54.5 20.5t63 8.5q43 0 71.5 -13.5t45.5 -37.5t24.5 -57t7.5 -72v-358h-167zM368 -106q0 -22 -10 -44t-24 -45
q-14 -22 -29.5 -43t-30.5 -42l-52 29q11 17 24 40t13 40q0 8 -4 15.5t-9 16t-9 18.5t-4 23q0 27 20 44.5t46 17.5q32 0 50.5 -20t18.5 -50z" />
    <glyph glyph-name="Ncaron" unicode="&#x147;" horiz-adv-x="636" 
d="M407 0l-194 404v-404h-150v667h163l197 -409v409h150v-667h-166zM372 719h-112l-132 149l67 67l123 -102l124 102l66 -66z" />
    <glyph glyph-name="ncaron" unicode="&#x148;" horiz-adv-x="596" 
d="M382 0v299q0 33 -2 55t-8 35.5t-17 19t-30 5.5q-14 0 -29.5 -4.5t-30 -12t-27 -16.5t-21.5 -17v-364h-166v528h147l12 -67q10 9 29 22.5t43.5 25.5t54.5 20.5t63 8.5q43 0 71.5 -13.5t45.5 -37.5t24.5 -57t7.5 -72v-358h-167zM352 596h-112l-132 149l67 67l123 -102
l124 102l66 -66z" />
    <glyph glyph-name="Omacron" unicode="&#x14c;" 
d="M588 334q0 -98 -17.5 -164.5t-52.5 -107t-86.5 -57.5t-118.5 -17q-68 0 -119 17t-86 57.5t-52.5 107t-17.5 164.5t17.5 164.5t52.5 106.5t86 57t119 17q67 0 118.5 -17t86.5 -57t52.5 -106.5t17.5 -164.5zM415 334q0 114 -21.5 170t-80.5 56t-80 -56t-21 -170t21 -170.5
t80 -56.5t80.5 56.5t21.5 170.5zM139 752v97h347v-97h-347z" />
    <glyph glyph-name="omacron" unicode="&#x14d;" horiz-adv-x="574" 
d="M543 264q0 -80 -18.5 -132.5t-52 -84t-80.5 -44.5t-105 -13t-105 13t-80.5 44.5t-52 84t-18.5 132.5t18.5 132.5t52 84t80.5 44.5t105 13t105 -13t80.5 -44.5t52 -84t18.5 -132.5zM372 264q0 93 -18 132.5t-67 39.5t-67 -39.5t-18 -132.5t18 -132.5t67 -39.5t67 39.5
t18 132.5zM112 628v97h347v-97h-347z" />
    <glyph glyph-name="Ohungarumlaut" unicode="&#x150;" 
d="M588 334q0 -98 -17.5 -164.5t-52.5 -107t-86.5 -57.5t-118.5 -17q-68 0 -119 17t-86 57.5t-52.5 107t-17.5 164.5t17.5 164.5t52.5 106.5t86 57t119 17q67 0 118.5 -17t86.5 -57t52.5 -106.5t17.5 -164.5zM415 334q0 114 -21.5 170t-80.5 56t-80 -56t-21 -170t21 -170.5
t80 -56.5t80.5 56.5t21.5 170.5zM425 709l-79 54l113 196l112 -78zM211 709l-79 54l113 196l112 -78z" />
    <glyph glyph-name="ohungarumlaut" unicode="&#x151;" horiz-adv-x="574" 
d="M543 264q0 -80 -18.5 -132.5t-52 -84t-80.5 -44.5t-105 -13t-105 13t-80.5 44.5t-52 84t-18.5 132.5t18.5 132.5t52 84t80.5 44.5t105 13t105 -13t80.5 -44.5t52 -84t18.5 -132.5zM372 264q0 93 -18 132.5t-67 39.5t-67 -39.5t-18 -132.5t18 -132.5t67 -39.5t67 39.5
t18 132.5zM399 586l-79 54l113 196l112 -78zM185 586l-79 54l113 196l112 -78z" />
    <glyph glyph-name="OE" unicode="&#x152;" horiz-adv-x="820" 
d="M474 0q-12 0 -31.5 -2t-42 -4t-45.5 -4t-42 -2q-68 0 -119 17t-86 57.5t-52.5 107t-17.5 164.5t17.5 164.5t52.5 106.5t86 57t119 17q20 0 43 -2t45 -4t41 -4t32 -2h324l-20 -124h-223v-143h177v-110h-177v-165h228l18 -125h-327zM386 550q-5 1 -24.5 4t-48.5 3
q-59 0 -80 -54.5t-21 -168.5t21 -169t80 -55q29 0 48.5 2.5t24.5 3.5v434z" />
    <glyph glyph-name="oe" unicode="&#x153;" horiz-adv-x="888" 
d="M862 268v-17.5t-1 -19.5h-320q1 -36 9.5 -61t23.5 -40t35.5 -21.5t43.5 -6.5q28 0 67 8t81 29l34 -98q-11 -8 -31.5 -17t-48.5 -16.5t-62 -12.5t-72 -5q-24 0 -48 3.5t-46 12.5t-41 25t-33 40q-24 -38 -71.5 -59.5t-101.5 -21.5q-55 0 -100.5 13t-78.5 44.5t-51.5 84
t-18.5 132.5t18.5 132.5t51.5 84t78.5 44.5t100.5 13q60 0 106.5 -22t70.5 -62q27 43 72.5 63.5t100.5 20.5q49 0 91.5 -16t73.5 -49t49 -84t18 -121zM692 318q-1 41 -7.5 65t-17 36t-23.5 15.5t-25 3.5t-26 -4.5t-25.5 -17.5t-19 -36.5t-8.5 -61.5h152zM372 264
q0 93 -18 132.5t-67 39.5t-67 -39.5t-18 -132.5t18 -132.5t67 -39.5t67 39.5t18 132.5z" />
    <glyph glyph-name="Racute" unicode="&#x154;" horiz-adv-x="597" 
d="M393 0l-137 269h-24v-269h-169v667h195q73 0 129 -8t94.5 -30t58.5 -61.5t20 -101.5q0 -40 -12 -70t-33 -52t-48.5 -36t-57.5 -21l186 -287h-202zM376 465q0 52 -23.5 70t-74.5 20h-46v-183h47q49 0 73 21.5t24 71.5zM269 708l-58 78l186 168l82 -109z" />
    <glyph glyph-name="racute" unicode="&#x155;" horiz-adv-x="390" 
d="M371 392q-8 4 -22.5 6.5t-26.5 2.5q-28 0 -47.5 -13t-32 -37t-18.5 -58t-6 -75v-218h-167v528h147l15 -85q13 30 30.5 48.5t37 29.5t38.5 15t34 4q8 0 18.5 -2t20.5 -4zM179 585l-58 78l186 168l82 -109z" />
    <glyph glyph-name="Rcommaaccent" unicode="&#x156;" horiz-adv-x="597" 
d="M393 0l-137 269h-24v-269h-169v667h195q73 0 129 -8t94.5 -30t58.5 -61.5t20 -101.5q0 -40 -12 -70t-33 -52t-48.5 -36t-57.5 -21l186 -287h-202zM376 465q0 52 -23.5 70t-74.5 20h-46v-183h47q49 0 73 21.5t24 71.5zM370 -106q0 -22 -10 -44t-24 -45q-14 -22 -29.5 -43
t-30.5 -42l-52 29q11 17 24 40t13 40q0 8 -4 15.5t-9 16t-9 18.5t-4 23q0 27 20 44.5t46 17.5q32 0 50.5 -20t18.5 -50z" />
    <glyph glyph-name="rcommaaccent" unicode="&#x157;" horiz-adv-x="390" 
d="M371 392q-8 4 -22.5 6.5t-26.5 2.5q-28 0 -47.5 -13t-32 -37t-18.5 -58t-6 -75v-218h-167v528h147l15 -85q13 30 30.5 48.5t37 29.5t38.5 15t34 4q8 0 18.5 -2t20.5 -4zM236 -106q0 -22 -10 -44t-24 -45q-14 -22 -29.5 -43t-30.5 -42l-52 29q11 17 24 40t13 40
q0 8 -4 15.5t-9 16t-9 18.5t-4 23q0 27 20 44.5t46 17.5q32 0 50.5 -20t18.5 -50z" />
    <glyph glyph-name="Rcaron" unicode="&#x158;" horiz-adv-x="597" 
d="M393 0l-137 269h-24v-269h-169v667h195q73 0 129 -8t94.5 -30t58.5 -61.5t20 -101.5q0 -40 -12 -70t-33 -52t-48.5 -36t-57.5 -21l186 -287h-202zM376 465q0 52 -23.5 70t-74.5 20h-46v-183h47q49 0 73 21.5t24 71.5zM353 719h-112l-132 149l67 67l123 -102l124 102
l66 -66z" />
    <glyph glyph-name="rcaron" unicode="&#x159;" horiz-adv-x="390" 
d="M371 392q-8 4 -22.5 6.5t-26.5 2.5q-28 0 -47.5 -13t-32 -37t-18.5 -58t-6 -75v-218h-167v528h147l15 -85q13 30 30.5 48.5t37 29.5t38.5 15t34 4q8 0 18.5 -2t20.5 -4zM263 596h-112l-132 149l67 67l123 -102l124 102l66 -66z" />
    <glyph glyph-name="Sacute" unicode="&#x15a;" horiz-adv-x="499" 
d="M478 193q0 -100 -61 -152.5t-193 -52.5q-66 0 -119 10t-87 22l20 118q30 -10 70 -20t75 -10q20 0 38 3.5t31.5 11.5t21 21.5t7.5 34.5q0 24 -19 43.5t-47.5 38.5t-62 39.5t-62 46.5t-47.5 59.5t-19 78.5q0 99 64 146.5t176 47.5q59 0 103.5 -8t82.5 -18l-20 -117
q-26 9 -62 16.5t-72 7.5q-47 0 -67 -19t-20 -45q0 -24 20 -43t50 -38t64.5 -39t64.5 -46t50 -59t20 -78zM221 708l-58 78l186 168l82 -109z" />
    <glyph glyph-name="sacute" unicode="&#x15b;" horiz-adv-x="429" 
d="M406 150q0 -36 -11 -65.5t-35.5 -50.5t-63 -32.5t-93.5 -11.5q-60 0 -105.5 11t-77.5 25l17 98q11 -4 26.5 -9t32.5 -9t34 -7t31 -3q36 0 57 8t21 40q0 21 -15.5 37.5t-39 31.5t-51 30.5t-51 35.5t-39 46.5t-15.5 62.5q0 73 46 111.5t149 38.5q52 0 89.5 -7t70.5 -18
l-16 -102q-20 7 -51 14t-60 7q-36 0 -53 -8.5t-17 -29.5q0 -18 16.5 -32t40.5 -28.5t53 -30t53 -37t40.5 -49.5t16.5 -67zM186 585l-58 78l186 168l82 -109z" />
    <glyph glyph-name="Scedilla" unicode="&#x15e;" horiz-adv-x="499" 
d="M372 -127q0 -51 -38.5 -77t-103.5 -26q-23 0 -49.5 4t-40.5 9l20 62q11 -4 26 -7t32 -3q24 0 37.5 9t13.5 29q0 29 -50 29q-12 0 -24 -1t-17 -3l25 90q-59 2 -106.5 11.5t-78.5 20.5l20 118q30 -10 70 -20t75 -10q20 0 38 3.5t31.5 11.5t21 21.5t7.5 34.5q0 24 -19 43.5
t-47.5 38.5t-62 39.5t-62 46.5t-47.5 59.5t-19 78.5q0 99 64 146.5t176 47.5q59 0 103.5 -8t82.5 -18l-20 -117q-26 9 -62 16.5t-72 7.5q-47 0 -67 -19t-20 -45q0 -24 20 -43t50 -38t64.5 -39t64.5 -46t50 -59t20 -78q0 -92 -51.5 -144t-162.5 -60l-6 -31q4 1 9.5 2t14.5 1
q39 0 64.5 -21.5t25.5 -66.5z" />
    <glyph glyph-name="Scedilla" unicode="&#xf6c1;" horiz-adv-x="499" 
d="M372 -127q0 -51 -38.5 -77t-103.5 -26q-23 0 -49.5 4t-40.5 9l20 62q11 -4 26 -7t32 -3q24 0 37.5 9t13.5 29q0 29 -50 29q-12 0 -24 -1t-17 -3l25 90q-59 2 -106.5 11.5t-78.5 20.5l20 118q30 -10 70 -20t75 -10q20 0 38 3.5t31.5 11.5t21 21.5t7.5 34.5q0 24 -19 43.5
t-47.5 38.5t-62 39.5t-62 46.5t-47.5 59.5t-19 78.5q0 99 64 146.5t176 47.5q59 0 103.5 -8t82.5 -18l-20 -117q-26 9 -62 16.5t-72 7.5q-47 0 -67 -19t-20 -45q0 -24 20 -43t50 -38t64.5 -39t64.5 -46t50 -59t20 -78q0 -92 -51.5 -144t-162.5 -60l-6 -31q4 1 9.5 2t14.5 1
q39 0 64.5 -21.5t25.5 -66.5z" />
    <glyph glyph-name="scedilla" unicode="&#x15f;" horiz-adv-x="429" 
d="M337 -127q0 -51 -38.5 -77t-103.5 -26q-23 0 -49.5 4t-40.5 9l20 62q11 -4 26 -7t32 -3q24 0 37.5 9t13.5 29q0 29 -50 29q-12 0 -24 -1t-17 -3l26 93q-48 3 -85 13t-64 22l17 98q11 -4 26.5 -9t32.5 -9t34 -7t31 -3q36 0 57 8t21 40q0 21 -15.5 37.5t-39 31.5t-51 30.5
t-51 35.5t-39 46.5t-15.5 62.5q0 73 46 111.5t149 38.5q52 0 89.5 -7t70.5 -18l-16 -102q-20 7 -51 14t-60 7q-36 0 -53 -8.5t-17 -29.5q0 -18 16.5 -32t40.5 -28.5t53 -30t53 -37t40.5 -49.5t16.5 -67q0 -67 -40.5 -110t-135.5 -49l-7 -33q4 1 9.5 2t14.5 1
q39 0 64.5 -21.5t25.5 -66.5z" />
    <glyph glyph-name="scedilla" unicode="&#xf6c2;" horiz-adv-x="429" 
d="M337 -127q0 -51 -38.5 -77t-103.5 -26q-23 0 -49.5 4t-40.5 9l20 62q11 -4 26 -7t32 -3q24 0 37.5 9t13.5 29q0 29 -50 29q-12 0 -24 -1t-17 -3l26 93q-48 3 -85 13t-64 22l17 98q11 -4 26.5 -9t32.5 -9t34 -7t31 -3q36 0 57 8t21 40q0 21 -15.5 37.5t-39 31.5t-51 30.5
t-51 35.5t-39 46.5t-15.5 62.5q0 73 46 111.5t149 38.5q52 0 89.5 -7t70.5 -18l-16 -102q-20 7 -51 14t-60 7q-36 0 -53 -8.5t-17 -29.5q0 -18 16.5 -32t40.5 -28.5t53 -30t53 -37t40.5 -49.5t16.5 -67q0 -67 -40.5 -110t-135.5 -49l-7 -33q4 1 9.5 2t14.5 1
q39 0 64.5 -21.5t25.5 -66.5z" />
    <glyph glyph-name="Scaron" unicode="&#x160;" horiz-adv-x="499" 
d="M478 193q0 -100 -61 -152.5t-193 -52.5q-66 0 -119 10t-87 22l20 118q30 -10 70 -20t75 -10q20 0 38 3.5t31.5 11.5t21 21.5t7.5 34.5q0 24 -19 43.5t-47.5 38.5t-62 39.5t-62 46.5t-47.5 59.5t-19 78.5q0 99 64 146.5t176 47.5q59 0 103.5 -8t82.5 -18l-20 -117
q-26 9 -62 16.5t-72 7.5q-47 0 -67 -19t-20 -45q0 -24 20 -43t50 -38t64.5 -39t64.5 -46t50 -59t20 -78zM304 719h-112l-132 149l67 67l123 -102l124 102l66 -66z" />
    <glyph glyph-name="scaron" unicode="&#x161;" horiz-adv-x="429" 
d="M406 150q0 -36 -11 -65.5t-35.5 -50.5t-63 -32.5t-93.5 -11.5q-60 0 -105.5 11t-77.5 25l17 98q11 -4 26.5 -9t32.5 -9t34 -7t31 -3q36 0 57 8t21 40q0 21 -15.5 37.5t-39 31.5t-51 30.5t-51 35.5t-39 46.5t-15.5 62.5q0 73 46 111.5t149 38.5q52 0 89.5 -7t70.5 -18
l-16 -102q-20 7 -51 14t-60 7q-36 0 -53 -8.5t-17 -29.5q0 -18 16.5 -32t40.5 -28.5t53 -30t53 -37t40.5 -49.5t16.5 -67zM270 596h-112l-132 149l67 67l123 -102l124 102l66 -66z" />
    <glyph glyph-name="Tcommaaccent" unicode="&#x162;" horiz-adv-x="492" 
d="M470 530h-139v-530h-170v530h-139l-17 137h483zM319 -106q0 -22 -10 -44t-24 -45q-14 -22 -29.5 -43t-30.5 -42l-52 29q11 17 24 40t13 40q0 8 -4 15.5t-9 16t-9 18.5t-4 23q0 27 20 44.5t46 17.5q32 0 50.5 -20t18.5 -50z" />
    <glyph glyph-name="Tcommaaccent" unicode="&#x21a;" horiz-adv-x="492" 
d="M470 530h-139v-530h-170v530h-139l-17 137h483zM319 -106q0 -22 -10 -44t-24 -45q-14 -22 -29.5 -43t-30.5 -42l-52 29q11 17 24 40t13 40q0 8 -4 15.5t-9 16t-9 18.5t-4 23q0 27 20 44.5t46 17.5q32 0 50.5 -20t18.5 -50z" />
    <glyph glyph-name="tcommaaccent" unicode="&#x163;" horiz-adv-x="353" 
d="M345 17q-23 -10 -53.5 -18.5t-76.5 -8.5q-80 0 -113 35t-33 114v290h-63l-8 99h75l2 125h161v-125h100l-14 -99h-86v-260q0 -31 7 -46.5t30 -15.5q16 0 27.5 3.5t19.5 5.5zM258 -106q0 -22 -10 -44t-24 -45q-14 -22 -29.5 -43t-30.5 -42l-52 29q11 17 24 40t13 40
q0 8 -4 15.5t-9 16t-9 18.5t-4 23q0 27 20 44.5t46 17.5q32 0 50.5 -20t18.5 -50z" />
    <glyph glyph-name="tcommaaccent" unicode="&#x21b;" horiz-adv-x="353" 
d="M345 17q-23 -10 -53.5 -18.5t-76.5 -8.5q-80 0 -113 35t-33 114v290h-63l-8 99h75l2 125h161v-125h100l-14 -99h-86v-260q0 -31 7 -46.5t30 -15.5q16 0 27.5 3.5t19.5 5.5zM258 -106q0 -22 -10 -44t-24 -45q-14 -22 -29.5 -43t-30.5 -42l-52 29q11 17 24 40t13 40
q0 8 -4 15.5t-9 16t-9 18.5t-4 23q0 27 20 44.5t46 17.5q32 0 50.5 -20t18.5 -50z" />
    <glyph glyph-name="Tcaron" unicode="&#x164;" horiz-adv-x="492" 
d="M470 530h-139v-530h-170v530h-139l-17 137h483zM302 719h-112l-132 149l67 67l123 -102l124 102l66 -66z" />
    <glyph glyph-name="tcaron" unicode="&#x165;" horiz-adv-x="353" 
d="M345 17q-23 -10 -53.5 -18.5t-76.5 -8.5q-80 0 -113 35t-33 114v290h-63l-8 99h75l2 125h161v-125h100l-14 -99h-86v-260q0 -31 7 -46.5t30 -15.5q16 0 27.5 3.5t19.5 5.5zM427 768q0 -22 -10 -44t-24 -45q-14 -22 -29.5 -43t-30.5 -42l-52 29q11 17 24 40t13 40
q0 8 -4 15.5t-9 16t-9 18.5t-4 23q0 27 20 44.5t46 17.5q32 0 50.5 -20t18.5 -50z" />
    <glyph glyph-name="Umacron" unicode="&#x16a;" horiz-adv-x="606" 
d="M554 310q0 -89 -11 -150t-39 -99.5t-77.5 -55.5t-125.5 -17q-77 0 -125 17t-76 55.5t-38 99.5t-10 150v357h170v-407q0 -39 3 -67.5t12 -47.5t25.5 -28t42.5 -9q27 0 43 9t24.5 28t11 47.5t2.5 67.5v407h168v-357zM128 750v97h347v-97h-347z" />
    <glyph glyph-name="umacron" unicode="&#x16b;" horiz-adv-x="595" 
d="M400 0l-14 67q-11 -9 -29 -22.5t-42 -25.5t-53.5 -20.5t-62.5 -8.5q-43 0 -72 13.5t-46.5 37.5t-25 57t-7.5 72v358h167v-298q0 -33 2 -55t8.5 -35.5t18 -19t30.5 -5.5q14 0 29 5.5t29 13.5t26 17.5t21 17.5v359h167v-528h-146zM122 628v97h347v-97h-347z" />
    <glyph glyph-name="Uring" unicode="&#x16e;" horiz-adv-x="606" 
d="M554 310q0 -89 -11 -150t-39 -99.5t-77.5 -55.5t-125.5 -17q-77 0 -125 17t-76 55.5t-38 99.5t-10 150v357h170v-407q0 -39 3 -67.5t12 -47.5t25.5 -28t42.5 -9q27 0 43 9t24.5 28t11 47.5t2.5 67.5v407h168v-357zM434 844q0 -27 -10 -51t-27.5 -42t-41.5 -28.5
t-52 -10.5t-52 10.5t-42 28.5t-28 42t-10 51t10 51t28 42t42 28t52 10t52 -10t41.5 -28t27.5 -42t10 -51zM359 844q0 23 -15 40t-41 17t-41.5 -17t-15.5 -40t15.5 -40.5t41.5 -17.5t41 17t15 41z" />
    <glyph glyph-name="uring" unicode="&#x16f;" horiz-adv-x="595" 
d="M400 0l-14 67q-11 -9 -29 -22.5t-42 -25.5t-53.5 -20.5t-62.5 -8.5q-43 0 -72 13.5t-46.5 37.5t-25 57t-7.5 72v358h167v-298q0 -33 2 -55t8.5 -35.5t18 -19t30.5 -5.5q14 0 29 5.5t29 13.5t26 17.5t21 17.5v359h167v-528h-146zM429 721q0 -27 -10 -51t-27.5 -42
t-41.5 -28.5t-52 -10.5t-52 10.5t-42 28.5t-28 42t-10 51t10 51t28 42t42 28t52 10t52 -10t41.5 -28t27.5 -42t10 -51zM354 721q0 23 -15 40t-41 17t-41.5 -17t-15.5 -40t15.5 -40.5t41.5 -17.5t41 17t15 41z" />
    <glyph glyph-name="Uhungarumlaut" unicode="&#x170;" horiz-adv-x="606" 
d="M554 310q0 -89 -11 -150t-39 -99.5t-77.5 -55.5t-125.5 -17q-77 0 -125 17t-76 55.5t-38 99.5t-10 150v357h170v-407q0 -39 3 -67.5t12 -47.5t25.5 -28t42.5 -9q27 0 43 9t24.5 28t11 47.5t2.5 67.5v407h168v-357zM415 709l-79 54l113 196l112 -78zM201 709l-79 54
l113 196l112 -78z" />
    <glyph glyph-name="uhungarumlaut" unicode="&#x171;" horiz-adv-x="595" 
d="M400 0l-14 67q-11 -9 -29 -22.5t-42 -25.5t-53.5 -20.5t-62.5 -8.5q-43 0 -72 13.5t-46.5 37.5t-25 57t-7.5 72v358h167v-298q0 -33 2 -55t8.5 -35.5t18 -19t30.5 -5.5q14 0 29 5.5t29 13.5t26 17.5t21 17.5v359h167v-528h-146zM410 586l-79 54l113 196l112 -78zM196 586
l-79 54l113 196l112 -78z" />
    <glyph glyph-name="Uogonek" unicode="&#x172;" horiz-adv-x="606" 
d="M554 310q0 -45 -3 -87t-12 -78.5t-26.5 -67.5t-45.5 -54q-47 -38 -76.5 -67t-29.5 -63q0 -45 53 -45q21 0 39.5 7t27.5 12l23 -66q-8 -3 -20 -8t-28 -10t-35.5 -9t-41.5 -4q-62 0 -92.5 27.5t-30.5 71.5q0 34 26.5 67t69.5 66q-11 -6 -26 -10t-25 -4q-77 0 -125 17
t-76 55.5t-38 99.5t-10 150v357h170v-407q0 -39 3 -67.5t12 -47.5t25.5 -28t42.5 -9q27 0 43 9t24.5 28t11 47.5t2.5 67.5v407h168v-357z" />
    <glyph glyph-name="uogonek" unicode="&#x173;" horiz-adv-x="595" 
d="M551 -199q-8 -3 -20 -8t-28 -10t-35.5 -9t-41.5 -4q-62 0 -92.5 27.5t-30.5 71.5q0 19 8.5 37t22 34.5t31 31.5t35.5 28l-14 67q-11 -9 -29 -22.5t-42 -25.5t-53.5 -20.5t-62.5 -8.5q-43 0 -72 13.5t-46.5 37.5t-25 57t-7.5 72v358h167v-298q0 -33 2 -55t8.5 -35.5
t18 -19t30.5 -5.5q14 0 29 5.5t29 13.5t26 17.5t21 17.5v359h167v-528h-34q-13 0 -30.5 -9.5t-34 -24.5t-28 -34t-11.5 -39q0 -45 53 -45q21 0 39.5 7t27.5 12z" />
    <glyph glyph-name="Ydieresis" unicode="&#x178;" horiz-adv-x="580" 
d="M376 258v-258h-172v258l-212 409h188l116 -267l115 267h177zM496 808q0 -35 -24 -59t-59 -24t-59 24t-24 59t24 59t59 24t59 -24t24 -59zM248 808q0 -35 -23 -59t-58 -24q-17 0 -32.5 6.5t-27 17.5t-18 26t-6.5 33t6.5 33t18 26t27 17.5t32.5 6.5q35 0 58 -24t23 -59z
" />
    <glyph glyph-name="Zacute" unicode="&#x179;" horiz-adv-x="497" 
d="M23 0v118l260 422h-247v127h424v-118l-258 -422h266v-127h-445zM220 708l-58 78l186 168l82 -109z" />
    <glyph glyph-name="zacute" unicode="&#x17a;" horiz-adv-x="430" 
d="M23 0v100l204 317h-194v111h368v-100l-204 -317h210v-111h-384zM187 585l-58 78l186 168l82 -109z" />
    <glyph glyph-name="Zdotaccent" unicode="&#x17b;" horiz-adv-x="497" 
d="M23 0v118l260 422h-247v127h424v-118l-258 -422h266v-127h-445zM344 811q0 -40 -27.5 -67t-66.5 -27q-20 0 -37 7t-30 20t-20.5 30t-7.5 37t7.5 37.5t20.5 30t30 20t37 7.5q19 0 36.5 -7.5t30 -20t20 -30t7.5 -37.5z" />
    <glyph glyph-name="zdotaccent" unicode="&#x17c;" horiz-adv-x="430" 
d="M23 0v100l204 317h-194v111h368v-100l-204 -317h210v-111h-384zM311 688q0 -40 -27.5 -67t-66.5 -27q-20 0 -37 7t-30 20t-20.5 30t-7.5 37t7.5 37.5t20.5 30t30 20t37 7.5q19 0 36.5 -7.5t30 -20t20 -30t7.5 -37.5z" />
    <glyph glyph-name="florin" unicode="&#x192;" horiz-adv-x="550" 
d="M526 627q-10 2 -23.5 5t-28.5 3q-31 0 -41 -18t-16 -56l-5 -33h95l-17 -99h-93l-80 -501q-11 -70 -50 -108t-115 -38q-51 0 -80 5.5t-50 10.5l26 99q10 -2 23 -5t28 -3q31 0 40.5 18t15.5 56l75 466h-56l-8 99h79l11 69q11 70 49.5 107.5t115.5 37.5q51 0 80 -5.5
t50 -10.5z" />
    <glyph glyph-name="Scommaaccent" unicode="&#x218;" horiz-adv-x="499" 
d="M478 193q0 -100 -61 -152.5t-193 -52.5q-66 0 -119 10t-87 22l20 118q30 -10 70 -20t75 -10q20 0 38 3.5t31.5 11.5t21 21.5t7.5 34.5q0 24 -19 43.5t-47.5 38.5t-62 39.5t-62 46.5t-47.5 59.5t-19 78.5q0 99 64 146.5t176 47.5q59 0 103.5 -8t82.5 -18l-20 -117
q-26 9 -62 16.5t-72 7.5q-47 0 -67 -19t-20 -45q0 -24 20 -43t50 -38t64.5 -39t64.5 -46t50 -59t20 -78zM322 -106q0 -22 -10 -44t-24 -45q-14 -22 -29.5 -43t-30.5 -42l-52 29q11 17 24 40t13 40q0 8 -4 15.5t-9 16t-9 18.5t-4 23q0 27 20 44.5t46 17.5q32 0 50.5 -20
t18.5 -50z" />
    <glyph glyph-name="scommaaccent" unicode="&#x219;" horiz-adv-x="429" 
d="M406 150q0 -36 -11 -65.5t-35.5 -50.5t-63 -32.5t-93.5 -11.5q-60 0 -105.5 11t-77.5 25l17 98q11 -4 26.5 -9t32.5 -9t34 -7t31 -3q36 0 57 8t21 40q0 21 -15.5 37.5t-39 31.5t-51 30.5t-51 35.5t-39 46.5t-15.5 62.5q0 73 46 111.5t149 38.5q52 0 89.5 -7t70.5 -18
l-16 -102q-20 7 -51 14t-60 7q-36 0 -53 -8.5t-17 -29.5q0 -18 16.5 -32t40.5 -28.5t53 -30t53 -37t40.5 -49.5t16.5 -67zM287 -106q0 -22 -10 -44t-24 -45q-14 -22 -29.5 -43t-30.5 -42l-52 29q11 17 24 40t13 40q0 8 -4 15.5t-9 16t-9 18.5t-4 23q0 27 20 44.5t46 17.5
q32 0 50.5 -20t18.5 -50z" />
    <glyph glyph-name="circumflex" unicode="&#x2c6;" horiz-adv-x="531" 
d="M389 589l-123 102l-125 -102l-65 65l137 150h111l132 -148z" />
    <glyph glyph-name="caron" unicode="&#x2c7;" horiz-adv-x="531" 
d="M320 596h-112l-132 149l67 67l123 -102l124 102l66 -66z" />
    <glyph glyph-name="breve" unicode="&#x2d8;" horiz-adv-x="531" 
d="M437 762q-1 -83 -45.5 -126t-126.5 -43t-127 43t-45 126h89q0 -28 19.5 -50t63.5 -22q45 0 64 22t20 50h88z" />
    <glyph glyph-name="dotaccent" unicode="&#x2d9;" horiz-adv-x="531" 
d="M360 688q0 -40 -27.5 -67t-66.5 -27q-20 0 -37 7t-30 20t-20.5 30t-7.5 37t7.5 37.5t20.5 30t30 20t37 7.5q19 0 36.5 -7.5t30 -20t20 -30t7.5 -37.5z" />
    <glyph glyph-name="ring" unicode="&#x2da;" horiz-adv-x="531" 
d="M397 721q0 -27 -10 -51t-27.5 -42t-41.5 -28.5t-52 -10.5t-52 10.5t-42 28.5t-28 42t-10 51t10 51t28 42t42 28t52 10t52 -10t41.5 -28t27.5 -42t10 -51zM322 721q0 23 -15 40t-41 17t-41.5 -17t-15.5 -40t15.5 -40.5t41.5 -17.5t41 17t15 41z" />
    <glyph glyph-name="ogonek" unicode="&#x2db;" horiz-adv-x="511" 
d="M378 -199q-8 -3 -20 -8t-28 -10t-35.5 -9t-41.5 -4q-62 0 -92.5 27.5t-30.5 71.5q0 26 15.5 50.5t38 45.5t48.5 38.5t47 28.5h85q-15 -10 -37 -24.5t-42.5 -32t-35 -38.5t-14.5 -44q0 -45 53 -45q21 0 39.5 7t27.5 12z" />
    <glyph glyph-name="tilde" unicode="&#x2dc;" horiz-adv-x="531" 
d="M488 712q-17 -21 -32.5 -41t-32.5 -35.5t-38 -25t-48 -9.5q-22 0 -42.5 7.5t-39 17t-35.5 17t-33 7.5q-23 0 -45 -15.5t-34 -30.5l-65 46q17 21 32.5 41t32.5 35t38 24.5t48 9.5q21 0 40.5 -7.5t38 -17t36 -17t34.5 -7.5q23 0 45.5 15.5t34.5 30.5z" />
    <glyph glyph-name="hungarumlaut" unicode="&#x2dd;" horiz-adv-x="531" 
d="M378 586l-79 54l113 196l112 -78zM164 586l-79 54l113 196l112 -78z" />
    <glyph glyph-name="tonos" unicode="&#x384;" horiz-adv-x="531" 
d="M309 596h-94l-22 225h145z" />
    <glyph glyph-name="uni0385" unicode="&#x385;" horiz-adv-x="531" 
d="M510 677q0 -32 -22 -53.5t-54 -21.5t-54 21.5t-22 53.5t22 54t54 22t54 -22t22 -54zM174 677q0 -32 -21.5 -53.5t-53.5 -21.5t-54.5 21.5t-22.5 53.5t22.5 54t54.5 22t53.5 -22t21.5 -54zM300 609h-68l-31 217h132z" />
    <glyph glyph-name="Alphatonos" unicode="&#x386;" horiz-adv-x="677" 
d="M487 0l-29 102h-199l-29 -102h-173l204 667h208l202 -667h-184zM359 515l-75 -302h150zM124 442h-94l-22 225h145z" />
    <glyph glyph-name="Epsilontonos" unicode="&#x388;" horiz-adv-x="654" 
d="M217 0v667h414l-20 -124h-224v-143h178v-110h-178v-165h229l18 -125h-417zM124 441h-94l-22 225h145z" />
    <glyph glyph-name="Etatonos" unicode="&#x389;" horiz-adv-x="809" 
d="M577 0v281h-189v-281h-170v667h170v-262h189v262h170v-667h-170zM124 442h-94l-22 225h145z" />
    <glyph glyph-name="Iotatonos" unicode="&#x38a;" horiz-adv-x="450" 
d="M217 0v667h170v-667h-170zM124 442h-94l-22 225h145z" />
    <glyph glyph-name="Omicrontonos" unicode="&#x38c;" horiz-adv-x="772" 
d="M735 334q0 -98 -17.5 -164.5t-52.5 -107t-86.5 -57.5t-118.5 -17q-68 0 -119 17t-86 57.5t-52.5 107t-17.5 164.5t17.5 164.5t52.5 106.5t86 57t119 17q67 0 118.5 -17t86.5 -57t52.5 -106.5t17.5 -164.5zM562 334q0 114 -21.5 170t-80.5 56t-80 -56t-21 -170t21 -170.5
t80 -56.5t80.5 56.5t21.5 170.5zM124 442h-94l-22 225h145z" />
    <glyph glyph-name="Upsilontonos" unicode="&#x38e;" horiz-adv-x="769" 
d="M566 258v-258h-172v258l-212 409h188l116 -267l115 267h177zM124 442h-94l-22 225h145z" />
    <glyph glyph-name="Omegatonos" unicode="&#x38f;" horiz-adv-x="782" 
d="M570 370q0 39 -4 74t-15.5 60.5t-32.5 40.5t-55 15q-33 0 -54 -15t-32.5 -40.5t-15.5 -60t-4 -73.5q0 -89 25 -152.5t59 -96.5v-122h-256v125h118q-21 16 -42.5 41t-38.5 57.5t-28 71t-11 81.5q0 69 15 125t48.5 95.5t87 61t129.5 21.5t129.5 -21.5t87.5 -60.5t49 -95
t15 -125q0 -43 -11 -82t-29 -71t-39.5 -57.5t-42.5 -41.5h120v-125h-257v122q34 33 59.5 96.5t25.5 151.5zM124 442h-94l-22 225h145z" />
    <glyph glyph-name="iotadieresistonos" unicode="&#x390;" horiz-adv-x="306" 
d="M218 528v-361q0 -38 7.5 -50t21.5 -12q11 0 19.5 1t15.5 3l24 -96q-11 -5 -22.5 -9t-25.5 -7t-31.5 -5t-41.5 -2q-74 0 -104 35t-30 113v390h167zM381 677q0 -32 -22 -53.5t-54 -21.5t-54 21.5t-22 53.5t22 54t54 22t54 -22t22 -54zM45 677q0 -32 -21.5 -53.5
t-53.5 -21.5t-54.5 21.5t-22.5 53.5t22.5 54t54.5 22t53.5 -22t21.5 -54zM171 609h-68l-31 217h132z" />
    <glyph glyph-name="Alpha" unicode="&#x391;" 
d="M436 0l-29 102h-199l-29 -102h-173l204 667h208l202 -667h-184zM308 515l-75 -302h150z" />
    <glyph glyph-name="Beta" unicode="&#x392;" horiz-adv-x="596" 
d="M567 189q0 -51 -16.5 -86.5t-52.5 -58.5t-93.5 -33.5t-138.5 -10.5h-203v667h195q76 0 131.5 -7t91 -26t52.5 -53t17 -88q0 -33 -8 -57.5t-22.5 -42t-33.5 -28t-41 -15.5q25 -4 47 -13.5t38.5 -27.5t26.5 -47.5t10 -72.5zM376 475q0 48 -26.5 66.5t-82.5 18.5h-35v-170
h42q52 0 77 20t25 65zM393 203q0 47 -29.5 71t-95.5 24h-36v-191h37q65 0 94.5 22.5t29.5 73.5z" />
    <glyph glyph-name="Gamma" unicode="&#x393;" horiz-adv-x="451" 
d="M447 667l-17 -137h-197v-530h-170v667h384z" />
    <glyph glyph-name="Delta" unicode="&#x394;" 
d="M173 0h-167l204 667h208l202 -667h-182h-265zM308 514l-100 -390h198z" />
    <glyph glyph-name="Epsilon" unicode="&#x395;" horiz-adv-x="500" 
d="M63 0v667h414l-20 -124h-224v-143h178v-110h-178v-165h229l18 -125h-417z" />
    <glyph glyph-name="Zeta" unicode="&#x396;" horiz-adv-x="497" 
d="M23 0v118l260 422h-247v127h424v-118l-258 -422h266v-127h-445z" />
    <glyph glyph-name="Eta" unicode="&#x397;" horiz-adv-x="655" 
d="M422 0v281h-189v-281h-170v667h170v-262h189v262h170v-667h-170z" />
    <glyph glyph-name="Theta" unicode="&#x398;" 
d="M245 292v97h135v-97h-135zM588 334q0 -98 -17.5 -164.5t-52.5 -107t-86.5 -57.5t-118.5 -17q-68 0 -119 17t-86 57.5t-52.5 107t-17.5 164.5t17.5 164.5t52.5 106.5t86 57t119 17q67 0 118.5 -17t86.5 -57t52.5 -106.5t17.5 -164.5zM415 334q0 114 -21.5 170t-80.5 56
t-80 -56t-21 -170t21 -170.5t80 -56.5t80.5 56.5t21.5 170.5z" />
    <glyph glyph-name="Iota" unicode="&#x399;" horiz-adv-x="296" 
d="M63 0v667h170v-667h-170z" />
    <glyph glyph-name="Kappa" unicode="&#x39a;" horiz-adv-x="606" 
d="M401 0l-168 300v-300h-170v667h170v-277l163 277h187l-200 -314l226 -353h-208z" />
    <glyph glyph-name="Lambda" unicode="&#x39b;" 
d="M210 667h208l202 -667h-185l-127 514l-129 -514h-173z" />
    <glyph glyph-name="Mu" unicode="&#x39c;" horiz-adv-x="748" 
d="M547 0l-30 405l-96 -293h-103l-98 293l-28 -405h-168l65 667h167l118 -332l115 332h169l65 -667h-176z" />
    <glyph glyph-name="Nu" unicode="&#x39d;" horiz-adv-x="636" 
d="M407 0l-194 404v-404h-150v667h163l197 -409v409h150v-667h-166z" />
    <glyph glyph-name="Xi" unicode="&#x39e;" horiz-adv-x="507" 
d="M19 0l18 137h433l17 -137h-468zM39 530l-17 137h462l-18 -137h-427zM88 276v126h330v-126h-330z" />
    <glyph glyph-name="Omicron" unicode="&#x39f;" 
d="M588 334q0 -98 -17.5 -164.5t-52.5 -107t-86.5 -57.5t-118.5 -17q-68 0 -119 17t-86 57.5t-52.5 107t-17.5 164.5t17.5 164.5t52.5 106.5t86 57t119 17q67 0 118.5 -17t86.5 -57t52.5 -106.5t17.5 -164.5zM415 334q0 114 -21.5 170t-80.5 56t-80 -56t-21 -170t21 -170.5
t80 -56.5t80.5 56.5t21.5 170.5z" />
    <glyph glyph-name="Pi" unicode="&#x3a0;" horiz-adv-x="648" 
d="M415 0v543h-182v-543h-170v667h522v-667h-170z" />
    <glyph glyph-name="Rho" unicode="&#x3a1;" horiz-adv-x="581" 
d="M557 454q0 -108 -72 -160t-200 -52h-52v-242h-170v667h208q84 0 139 -14t88 -41.5t46 -67t13 -90.5zM383 454q0 51 -26 75.5t-74 24.5h-50v-201h50q51 0 75.5 26.5t24.5 74.5z" />
    <glyph glyph-name="Sigma" unicode="&#x3a3;" horiz-adv-x="500" 
d="M38 0v117q25 43 49 84q20 35 42.5 73t39.5 66l-127 209v118h435l-21 -127h-235q23 -38 45 -74q19 -31 39.5 -65t35.5 -58l-128 -216h253l20 -127h-448z" />
    <glyph glyph-name="Tau" unicode="&#x3a4;" horiz-adv-x="492" 
d="M470 530h-139v-530h-170v530h-139l-17 137h483z" />
    <glyph glyph-name="Upsilon" unicode="&#x3a5;" horiz-adv-x="580" 
d="M376 258v-258h-172v258l-212 409h188l116 -267l115 267h177z" />
    <glyph glyph-name="Phi" unicode="&#x3a6;" horiz-adv-x="804" 
d="M482 0h-160v56q-83 0 -138.5 21.5t-88.5 59t-47 88t-14 108.5t14 109t47 88.5t88.5 59.5t138.5 22v55h160v-55q83 0 138.5 -21.5t88.5 -59.5t47 -89t14 -109t-14 -108.5t-47 -88t-88.5 -59t-138.5 -21.5v-56zM206 333q0 -92 29.5 -129.5t86.5 -37.5v336
q-57 0 -86.5 -38.5t-29.5 -130.5zM482 166q57 0 86.5 37.5t29.5 129.5t-29.5 130.5t-86.5 38.5v-336z" />
    <glyph glyph-name="Chi" unicode="&#x3a7;" horiz-adv-x="603" 
d="M403 0l-103 227l-107 -227h-195l202 338l-189 329h200l89 -215l94 215h197l-188 -330l202 -337h-202z" />
    <glyph glyph-name="Psi" unicode="&#x3a8;" horiz-adv-x="803" 
d="M483 0h-164v180q-64 0 -115 14.5t-86.5 46.5t-54.5 82.5t-19 123.5v220h170v-240q0 -65 25.5 -95t79.5 -30v365h164v-365q54 0 80 30t26 95v240h170v-220q0 -73 -20.5 -123.5t-57.5 -82.5t-87.5 -46.5t-110.5 -14.5v-180z" />
    <glyph glyph-name="Omega" unicode="&#x3a9;" horiz-adv-x="637" 
d="M425 370q0 39 -4 74t-15.5 60.5t-32.5 40.5t-55 15q-33 0 -54 -15t-32.5 -40.5t-15.5 -60t-4 -73.5q0 -89 25 -152.5t59 -96.5v-122h-256v125h118q-21 16 -42.5 41t-38.5 57.5t-28 71t-11 81.5q0 69 15 125t48.5 95.5t87 61t129.5 21.5t129.5 -21.5t87.5 -60.5t49 -95
t15 -125q0 -43 -11 -82t-29 -71t-39.5 -57.5t-42.5 -41.5h120v-125h-257v122q34 33 59.5 96.5t25.5 151.5z" />
    <glyph glyph-name="Iotadieresis" unicode="&#x3aa;" horiz-adv-x="296" 
d="M63 0v667h170v-667h-170zM355 808q0 -35 -24 -59t-59 -24t-59 24t-24 59t24 59t59 24t59 -24t24 -59zM107 808q0 -35 -23 -59t-58 -24q-17 0 -32.5 6.5t-27 17.5t-18 26t-6.5 33t6.5 33t18 26t27 17.5t32.5 6.5q35 0 58 -24t23 -59z" />
    <glyph glyph-name="Upsilondieresis" unicode="&#x3ab;" horiz-adv-x="580" 
d="M376 258v-258h-172v258l-212 409h188l116 -267l115 267h177zM496 808q0 -35 -24 -59t-59 -24t-59 24t-24 59t24 59t59 24t59 -24t24 -59zM248 808q0 -35 -23 -59t-58 -24q-17 0 -32.5 6.5t-27 17.5t-18 26t-6.5 33t6.5 33t18 26t27 17.5t32.5 6.5q35 0 58 -24t23 -59z
" />
    <glyph glyph-name="alphatonos" unicode="&#x3ac;" horiz-adv-x="619" 
d="M538 225q0 -70 6.5 -95.5t25.5 -25.5q8 0 16 1.5t13 3.5l24 -96q-22 -10 -47 -16.5t-66 -6.5q-45 0 -66 21.5t-29 67.5q-9 -15 -25 -31t-38 -29t-50 -21t-61 -8q-39 0 -76.5 13.5t-67 45t-48 84.5t-18.5 131t19.5 130.5t51 84.5t71 45.5t78.5 13.5q33 0 59 -7.5t46.5 -20
t36 -28.5t26.5 -34q1 10 3.5 23.5t4.5 26.5l6 30h146q-3 -14 -10 -48.5t-14 -78t-12 -90.5t-5 -86zM381 263q0 69 -27.5 109t-65.5 40q-42 0 -63.5 -34.5t-21.5 -113.5q0 -84 21.5 -117t63.5 -33q19 0 36 11t29.5 31t20 47.5t7.5 59.5zM364 596h-94l-22 225h145z" />
    <glyph glyph-name="epsilontonos" unicode="&#x3ad;" horiz-adv-x="467" 
d="M141 274q-51 14 -74.5 47t-23.5 75q0 71 60 106.5t162 35.5q65 0 111.5 -11.5t70.5 -21.5l-35 -102q-17 8 -48.5 15t-65.5 7q-38 0 -60.5 -11.5t-22.5 -39.5q0 -17 8 -28t21.5 -17.5t31 -9t36.5 -2.5h63v-92h-66q-47 0 -76.5 -15.5t-29.5 -44.5q0 -36 24 -49t60 -13
q45 0 79 8.5t56 16.5l34 -101q-5 -2 -20.5 -8t-42 -12.5t-62 -11.5t-78.5 -5q-48 0 -88.5 7.5t-70 25.5t-46 47.5t-16.5 72.5q0 57 28 87.5t81 43.5zM299 596h-94l-22 225h145z" />
    <glyph glyph-name="etatonos" unicode="&#x3ae;" horiz-adv-x="596" 
d="M382 -208v507q0 33 -2 55t-8 35.5t-17 19t-30 5.5q-14 0 -29.5 -4.5t-30 -12t-27 -16.5t-21.5 -17v-364h-166v528h147l12 -67q10 9 29 22.5t43.5 25.5t54.5 20.5t63 8.5q43 0 71.5 -13.5t45.5 -37.5t24.5 -57t7.5 -72v-566h-167zM345 596h-94l-22 225h145z" />
    <glyph glyph-name="iotatonos" unicode="&#x3af;" horiz-adv-x="306" 
d="M218 528v-361q0 -38 7.5 -50t21.5 -12q11 0 19.5 1t15.5 3l24 -96q-11 -5 -22.5 -9t-25.5 -7t-31.5 -5t-41.5 -2q-74 0 -104 35t-30 113v390h167zM187 596h-94l-22 225h145z" />
    <glyph glyph-name="upsilondieresistonos" unicode="&#x3b0;" horiz-adv-x="587" 
d="M542 234q0 -62 -13.5 -108t-43 -76t-77 -45t-115.5 -15t-115 15t-76.5 45t-43 76t-13.5 108v294h167v-309q0 -64 22.5 -92.5t58.5 -28.5q39 0 60.5 28.5t21.5 92.5v309h167v-294v0zM538 677q0 -32 -22 -53.5t-54 -21.5t-54 21.5t-22 53.5t22 54t54 22t54 -22t22 -54z
M202 677q0 -32 -21.5 -53.5t-53.5 -21.5t-54.5 21.5t-22.5 53.5t22.5 54t54.5 22t53.5 -22t21.5 -54zM328 609h-68l-31 217h132z" />
    <glyph glyph-name="alpha" unicode="&#x3b1;" horiz-adv-x="619" 
d="M538 225q0 -70 6.5 -95.5t25.5 -25.5q8 0 16 1.5t13 3.5l24 -96q-22 -10 -47 -16.5t-66 -6.5q-45 0 -66 21.5t-29 67.5q-9 -15 -25 -31t-38 -29t-50 -21t-61 -8q-39 0 -76.5 13.5t-67 45t-48 84.5t-18.5 131t19.5 130.5t51 84.5t71 45.5t78.5 13.5q33 0 59 -7.5t46.5 -20
t36 -28.5t26.5 -34q1 10 3.5 23.5t4.5 26.5l6 30h146q-3 -14 -10 -48.5t-14 -78t-12 -90.5t-5 -86zM381 263q0 69 -27.5 109t-65.5 40q-42 0 -63.5 -34.5t-21.5 -113.5q0 -84 21.5 -117t63.5 -33q19 0 36 11t29.5 31t20 47.5t7.5 59.5z" />
    <glyph glyph-name="beta" unicode="&#x3b2;" horiz-adv-x="602" 
d="M571 222q0 -65 -17 -109.5t-45 -71.5t-64 -39t-74 -12q-42 0 -82.5 11t-69.5 27v-236h-165v702q0 62 12.5 108.5t41 77.5t75 46.5t113.5 15.5q49 0 92 -9.5t75 -30.5t51 -55t19 -84q0 -36 -10 -62t-27.5 -45t-39.5 -31.5t-46 -19.5q36 -3 65.5 -16t50.5 -35.5t33 -55
t12 -76.5zM400 224q0 71 -31 98t-88 27h-29v96h31q48 0 67 27t19 76q0 47 -22.5 68t-52.5 21q-44 0 -58.5 -25t-14.5 -82v-408q21 -14 47 -19t47 -5q44 0 64.5 27.5t20.5 98.5z" />
    <glyph glyph-name="gamma" unicode="&#x3b3;" horiz-adv-x="548" 
d="M357 -1v-207h-167v206l-185 530h169q19 -70 37 -138q16 -58 33 -121t30 -109l107 368h161z" />
    <glyph glyph-name="delta" unicode="&#x3b4;" horiz-adv-x="577" 
d="M546 255q0 -76 -19 -127t-53.5 -81.5t-82 -43.5t-105.5 -13q-41 0 -86 9t-82.5 36t-62 75.5t-24.5 127.5q0 53 13.5 93t35.5 67.5t49 44t53 23.5q-40 26 -63 57.5t-23 82.5q0 65 53 100.5t141 35.5q28 0 55 -4t50.5 -9t42.5 -11.5t32 -10.5l-22 -102q-11 4 -27 9.5
t-34.5 10.5t-38.5 8.5t-39 3.5q-33 0 -45.5 -10.5t-12.5 -24.5q0 -20 34.5 -41t88.5 -56q31 -20 62 -43.5t55.5 -53.5t39.5 -67.5t15 -85.5zM375 242q0 29 -6.5 52t-19 41.5t-30 34.5t-39.5 32q-38 -18 -60.5 -54t-22.5 -98q0 -81 20.5 -119.5t68.5 -38.5q51 0 70 36.5
t19 113.5z" />
    <glyph glyph-name="epsilon" unicode="&#x3b5;" horiz-adv-x="467" 
d="M141 274q-51 14 -74.5 47t-23.5 75q0 71 60 106.5t162 35.5q65 0 111.5 -11.5t70.5 -21.5l-35 -102q-17 8 -48.5 15t-65.5 7q-38 0 -60.5 -11.5t-22.5 -39.5q0 -17 8 -28t21.5 -17.5t31 -9t36.5 -2.5h63v-92h-66q-47 0 -76.5 -15.5t-29.5 -44.5q0 -36 24 -49t60 -13
q45 0 79 8.5t56 16.5l34 -101q-5 -2 -20.5 -8t-42 -12.5t-62 -11.5t-78.5 -5q-48 0 -88.5 7.5t-70 25.5t-46 47.5t-16.5 72.5q0 57 28 87.5t81 43.5z" />
    <glyph glyph-name="zeta" unicode="&#x3b6;" horiz-adv-x="465" 
d="M190 278q0 -36 7.5 -61.5t22.5 -45t37 -35t51 -31.5q31 -17 60 -34.5t51 -38.5t35.5 -46t13.5 -58q0 -72 -48 -109t-138 -37q-52 0 -92 8t-69 19l18 95q23 -8 48.5 -13.5t51.5 -5.5q32 0 51 7.5t19 31.5q0 19 -20.5 34t-51.5 32t-67 38t-67 51t-51.5 72t-20.5 102
q0 72 48.5 150.5t133.5 163.5l55 54h-197l-9 110h374v-89q-60 -59 -106 -109t-77 -94.5t-47 -84t-16 -76.5z" />
    <glyph glyph-name="eta" unicode="&#x3b7;" horiz-adv-x="596" 
d="M382 -208v507q0 33 -2 55t-8 35.5t-17 19t-30 5.5q-14 0 -29.5 -4.5t-30 -12t-27 -16.5t-21.5 -17v-364h-166v528h147l12 -67q10 9 29 22.5t43.5 25.5t54.5 20.5t63 8.5q43 0 71.5 -13.5t45.5 -37.5t24.5 -57t7.5 -72v-566h-167z" />
    <glyph glyph-name="theta" unicode="&#x3b8;" horiz-adv-x="611" 
d="M567 368q0 -102 -14 -174t-45 -117.5t-81 -66t-122 -20.5t-121.5 20.5t-80.5 65.5t-45 117t-14 175q0 102 14 173.5t45 116t81 64.5t121 20q72 0 122 -20t81 -64.5t45 -116t14 -173.5zM306 639q-27 0 -44.5 -13t-28 -39.5t-14.5 -68t-5 -98.5h183q0 57 -4 98.5t-14 68.5
t-27.5 39.5t-45.5 12.5zM213 316q0 -53 4.5 -94.5t15 -70t28 -44t44.5 -15.5q28 0 45.5 15.5t27.5 44.5t14 70.5t4 93.5h-183z" />
    <glyph glyph-name="iota" unicode="&#x3b9;" horiz-adv-x="306" 
d="M218 528v-361q0 -38 7.5 -50t21.5 -12q11 0 19.5 1t15.5 3l24 -96q-11 -5 -22.5 -9t-25.5 -7t-31.5 -5t-41.5 -2q-74 0 -104 35t-30 113v390h167z" />
    <glyph glyph-name="kappa" unicode="&#x3ba;" horiz-adv-x="572" 
d="M389 0l-170 242v-242h-167v528h167v-200l161 200h185l-201 -233l227 -295h-202z" />
    <glyph glyph-name="lambda" unicode="&#x3bb;" horiz-adv-x="562" 
d="M466 173q11 -35 19.5 -49.5t23.5 -14.5q14 0 25.5 3t17.5 5l25 -108q-14 -6 -44.5 -12.5t-71.5 -6.5q-20 0 -39 3.5t-36.5 19t-33.5 46.5t-31 87l-56 211l-91 -357h-172l193 540q-8 26 -15 42.5t-14.5 25.5t-15 12.5t-16.5 3.5q-17 0 -30.5 -3.5t-18.5 -5.5l-22 108
q6 2 19 5.5t28 6.5t31 5t30 2q36 0 62.5 -10.5t47.5 -34.5t38 -63.5t35 -96.5z" />
    <glyph glyph-name="mu" unicode="&#x3bc;" horiz-adv-x="601" 
d="M410 0l-11 54q-5 -10 -14 -21t-22 -20.5t-29.5 -16t-36.5 -6.5q-32 0 -50.5 14t-33.5 35v-247h-162v736h167v-298q0 -69 19.5 -98t58.5 -29q38 0 62 28.5t24 88.5v308h167v-528h-139z" />
    <glyph glyph-name="nu" unicode="&#x3bd;" horiz-adv-x="548" 
d="M357 0h-168l-184 528h169l100 -368l107 368h161z" />
    <glyph glyph-name="xi" unicode="&#x3be;" horiz-adv-x="483" 
d="M332 343q-72 0 -106.5 -27t-34.5 -78q0 -31 11 -52t29 -36.5t42.5 -27t51.5 -23.5q30 -13 59.5 -27t53 -33t38 -44.5t14.5 -61.5q0 -33 -10 -60.5t-31.5 -48t-57 -31.5t-86.5 -11q-53 0 -93 8t-69 19q5 24 9 48t9 47q21 -8 47.5 -13.5t52.5 -5.5q32 0 51 7.5t19 31.5
q0 12 -7.5 21.5t-19.5 17.5t-27.5 14.5t-31.5 12.5q-47 22 -86 42t-67.5 45.5t-44.5 60.5t-16 88q0 35 11.5 64.5t30.5 52t44 37t52 19.5q-49 16 -79.5 56.5t-30.5 101.5q0 44 19.5 77t53 54.5t77.5 32.5t94 11h150l-16 -111h-111q-23 0 -43.5 -4t-36 -13t-24.5 -24t-9 -37
q0 -91 116 -91h108v-109h-105z" />
    <glyph glyph-name="omicron" unicode="&#x3bf;" horiz-adv-x="574" 
d="M543 264q0 -80 -18.5 -132.5t-52 -84t-80.5 -44.5t-105 -13t-105 13t-80.5 44.5t-52 84t-18.5 132.5t18.5 132.5t52 84t80.5 44.5t105 13t105 -13t80.5 -44.5t52 -84t18.5 -132.5zM372 264q0 93 -18 132.5t-67 39.5t-67 -39.5t-18 -132.5t18 -132.5t67 -39.5t67 39.5
t18 132.5z" />
    <glyph glyph-name="pi" unicode="&#x3c0;" horiz-adv-x="652" 
d="M85 0v408h-74l-10 120h635l-17 -120h-83v-239q0 -32 6 -47.5t29 -15.5q16 0 27 3.5t19 6.5q6 -25 12.5 -50t12.5 -49q-23 -11 -53 -19t-75 -8t-73 11t-44 32.5t-22 53t-6 72.5v249h-117v-408h-167z" />
    <glyph glyph-name="rho" unicode="&#x3c1;" horiz-adv-x="591" 
d="M560 262q0 -75 -16.5 -127t-44 -84.5t-63 -46.5t-72.5 -14q-86 0 -157 38v-236h-165v467q0 86 22 140.5t58 85t83 42t97 11.5q51 0 98 -12t82.5 -43t56.5 -84.5t21 -136.5zM389 260q0 93 -20 134.5t-69 41.5q-23 0 -40 -8t-28.5 -27t-17 -50.5t-5.5 -77.5v-151
q21 -14 46.5 -19t49.5 -5q21 0 36.5 8t26 27t16 50t5.5 77z" />
    <glyph glyph-name="sigma1" unicode="&#x3c2;" horiz-adv-x="476" 
d="M306 408q-63 0 -90 -33.5t-27 -98.5q0 -36 11.5 -62t30.5 -46t43.5 -35.5t51.5 -30.5q31 -17 59.5 -34t50.5 -36.5t35 -43.5t13 -55q0 -33 -10 -60.5t-31.5 -48t-57 -31.5t-86.5 -11q-53 0 -93.5 8t-68.5 19l18 95q21 -8 47.5 -13.5t53.5 -5.5q32 0 50.5 7.5t18.5 31.5
q0 20 -26 37.5t-60 35.5q-30 16 -66.5 38t-68 53t-52.5 73t-21 100q0 71 19 121.5t54 83t84.5 47.5t109.5 15h156l-17 -120h-131z" />
    <glyph glyph-name="sigma" unicode="&#x3c3;" horiz-adv-x="576" 
d="M538 245q0 -71 -16.5 -119.5t-49 -78.5t-79 -43.5t-106.5 -13.5q-58 0 -105 13t-80.5 44t-52 83.5t-18.5 132.5t18.5 133t52 84.5t80.5 44.5t105 13q32 0 52 -1.5t38.5 -3.5t40.5 -3.5t60 -1.5h87l-14 -111h-4q-10 0 -22.5 0.5t-23.5 1t-18.5 1.5t-10.5 3q7 -6 18 -21
t21.5 -37.5t18.5 -52.5t8 -67zM370 252q0 83 -19.5 132t-66.5 49q-46 0 -64 -38.5t-18 -130.5q0 -93 18 -132.5t67 -39.5t66 37.5t17 122.5z" />
    <glyph glyph-name="tau" unicode="&#x3c4;" horiz-adv-x="467" 
d="M298 408v-234q0 -38 9.5 -52.5t39.5 -14.5q16 0 31.5 4t23.5 7l25 -99q-24 -11 -64 -20t-84 -9q-41 0 -69 8.5t-45.5 27t-25.5 49.5t-8 76v257h-119l-10 120h445l-17 -120h-132z" />
    <glyph glyph-name="upsilon" unicode="&#x3c5;" horiz-adv-x="587" 
d="M542 234q0 -62 -13.5 -108t-43 -76t-77 -45t-115.5 -15t-115 15t-76.5 45t-43 76t-13.5 108v294h167v-309q0 -64 22.5 -92.5t58.5 -28.5q39 0 60.5 28.5t21.5 92.5v309h167v-294v0z" />
    <glyph glyph-name="phi" unicode="&#x3c6;" horiz-adv-x="778" 
d="M747 265q0 -65 -15 -114t-42.5 -82t-66.5 -51.5t-88 -23.5q-19 -2 -38.5 -3t-39.5 -1v-198h-152v198q-142 0 -208 64t-66 201q0 67 16 115.5t41.5 81.5t58.5 53t68 32l52 -75q-32 -21 -48.5 -68t-16.5 -132q0 -38 5 -69t16.5 -53.5t31.5 -35t50 -12.5v235q0 55 16.5 94.5
t44.5 65.5t65.5 38.5t78.5 12.5q122 0 179.5 -70t57.5 -203zM457 92q34 0 56.5 11.5t36.5 33.5t20 52.5t6 69.5t-2.5 71t-9.5 55.5t-20 36t-34 12.5q-32 0 -42.5 -28.5t-10.5 -88.5v-225z" />
    <glyph glyph-name="chi" unicode="&#x3c7;" horiz-adv-x="523" 
d="M348 0l-93 175l-86 -175h-165l168 278l-154 250h171l79 -162l75 162h164l-156 -258l168 -270h-171z" />
    <glyph glyph-name="psi" unicode="&#x3c8;" horiz-adv-x="782" 
d="M468 -208h-154v198h-18q-61 0 -107.5 13.5t-78 44.5t-48 81t-16.5 122v277h167v-288q0 -40 4.5 -67t15 -43t27.5 -22.5t41 -6.5h13v493h154v-493h13q20 0 36.5 6.5t28 22.5t17.5 43t6 67v288h167v-277q0 -72 -16.5 -122t-48 -81t-78 -44.5t-107.5 -13.5h-18v-198z" />
    <glyph glyph-name="omega" unicode="&#x3c9;" horiz-adv-x="787" 
d="M546 -10q-35 0 -60.5 10t-43.5 25.5t-29.5 34.5t-18.5 37q-7 -18 -19 -37t-30 -34.5t-43.5 -25.5t-59.5 -10q-101 0 -156 63t-55 195q0 71 16 121t41.5 83.5t58.5 53t68 31.5l52 -75q-32 -21 -48.5 -68t-16.5 -133q0 -66 15.5 -109.5t49.5 -43.5q23 0 38.5 23t15.5 67
v237h145v-237q0 -44 16 -67t39 -23q17 0 29 12t20 32.5t11.5 48.5t3.5 60q0 86 -16.5 133t-48.5 68l52 75q35 -12 68 -31.5t59 -53t41.5 -83.5t15.5 -121q0 -133 -54.5 -195.5t-155.5 -62.5z" />
    <glyph glyph-name="iotadieresis" unicode="&#x3ca;" horiz-adv-x="306" 
d="M218 528v-361q0 -38 7.5 -50t21.5 -12q11 0 19.5 1t15.5 3l24 -96q-11 -5 -22.5 -9t-25.5 -7t-31.5 -5t-41.5 -2q-74 0 -104 35t-30 113v390h167zM345 685q0 -35 -24 -59t-59 -24t-59 24t-24 59t24 59t59 24t59 -24t24 -59zM97 685q0 -35 -23 -59t-58 -24
q-17 0 -32.5 6.5t-27 17.5t-18 26t-6.5 33t6.5 33t18 26t27 17.5t32.5 6.5q35 0 58 -24t23 -59z" />
    <glyph glyph-name="upsilondieresis" unicode="&#x3cb;" horiz-adv-x="587" 
d="M542 234q0 -62 -13.5 -108t-43 -76t-77 -45t-115.5 -15t-115 15t-76.5 45t-43 76t-13.5 108v294h167v-309q0 -64 22.5 -92.5t58.5 -28.5q39 0 60.5 28.5t21.5 92.5v309h167v-294v0zM500 685q0 -35 -24 -59t-59 -24t-59 24t-24 59t24 59t59 24t59 -24t24 -59zM252 685
q0 -35 -23 -59t-58 -24q-17 0 -32.5 6.5t-27 17.5t-18 26t-6.5 33t6.5 33t18 26t27 17.5t32.5 6.5q35 0 58 -24t23 -59z" />
    <glyph glyph-name="omicrontonos" unicode="&#x3cc;" horiz-adv-x="574" 
d="M543 264q0 -80 -18.5 -132.5t-52 -84t-80.5 -44.5t-105 -13t-105 13t-80.5 44.5t-52 84t-18.5 132.5t18.5 132.5t52 84t80.5 44.5t105 13t105 -13t80.5 -44.5t52 -84t18.5 -132.5zM372 264q0 93 -18 132.5t-67 39.5t-67 -39.5t-18 -132.5t18 -132.5t67 -39.5t67 39.5
t18 132.5zM330 596h-94l-22 225h145z" />
    <glyph glyph-name="upsilontonos" unicode="&#x3cd;" horiz-adv-x="587" 
d="M542 234q0 -62 -13.5 -108t-43 -76t-77 -45t-115.5 -15t-115 15t-76.5 45t-43 76t-13.5 108v294h167v-309q0 -64 22.5 -92.5t58.5 -28.5q39 0 60.5 28.5t21.5 92.5v309h167v-294v0zM338 596h-94l-22 225h145z" />
    <glyph glyph-name="omegatonos" unicode="&#x3ce;" horiz-adv-x="787" 
d="M546 -10q-35 0 -60.5 10t-43.5 25.5t-29.5 34.5t-18.5 37q-7 -18 -19 -37t-30 -34.5t-43.5 -25.5t-59.5 -10q-101 0 -156 63t-55 195q0 71 16 121t41.5 83.5t58.5 53t68 31.5l52 -75q-32 -21 -48.5 -68t-16.5 -133q0 -66 15.5 -109.5t49.5 -43.5q23 0 38.5 23t15.5 67
v237h145v-237q0 -44 16 -67t39 -23q17 0 29 12t20 32.5t11.5 48.5t3.5 60q0 86 -16.5 133t-48.5 68l52 75q35 -12 68 -31.5t59 -53t41.5 -83.5t15.5 -121q0 -133 -54.5 -195.5t-155.5 -62.5zM437 596h-94l-22 225h145z" />
    <glyph glyph-name="afii10023" unicode="&#x401;" horiz-adv-x="500" 
d="M63 0v667h414l-20 -124h-224v-143h178v-110h-178v-165h229l18 -125h-417zM471 808q0 -35 -24 -59t-59 -24t-59 24t-24 59t24 59t59 24t59 -24t24 -59zM223 808q0 -35 -23 -59t-58 -24q-17 0 -32.5 6.5t-27 17.5t-18 26t-6.5 33t6.5 33t18 26t27 17.5t32.5 6.5
q35 0 58 -24t23 -59z" />
    <glyph glyph-name="afii10051" unicode="&#x402;" horiz-adv-x="706" 
d="M685 216q-1 -112 -63.5 -165t-194.5 -53q-11 0 -21 0.5t-21 1.5v111q5 0 11 -0.5t9 -0.5q23 0 43 4.5t34 16t22 31t8 50.5q0 47 -28.5 66.5t-68.5 19.5q-17 0 -37 -4t-36 -12v-282h-170v541h-152l-20 126h513l-20 -126h-151v-146q30 11 63.5 17t65.5 6q37 0 75.5 -10
t69 -33t50 -62t19.5 -97z" />
    <glyph glyph-name="afii10052" unicode="&#x403;" horiz-adv-x="451" 
d="M447 667l-17 -137h-197v-530h-170v667h384zM196 708l-58 78l186 168l82 -109z" />
    <glyph glyph-name="afii10053" unicode="&#x404;" horiz-adv-x="506" 
d="M488 20q-33 -14 -70 -23t-91 -9q-75 0 -129.5 19t-90 60.5t-52.5 107.5t-17 159q0 181 70 263t219 82q55 0 88.5 -9.5t63.5 -19.5l-33 -111q-23 8 -49 13.5t-53 5.5q-58 0 -89.5 -37t-39.5 -118h161v-120h-162q6 -82 36.5 -126t92.5 -44q28 0 56.5 6t54.5 16l34 -115v0z
" />
    <glyph glyph-name="afii10054" unicode="&#x405;" horiz-adv-x="499" 
d="M478 193q0 -100 -61 -152.5t-193 -52.5q-66 0 -119 10t-87 22l20 118q30 -10 70 -20t75 -10q20 0 38 3.5t31.5 11.5t21 21.5t7.5 34.5q0 24 -19 43.5t-47.5 38.5t-62 39.5t-62 46.5t-47.5 59.5t-19 78.5q0 99 64 146.5t176 47.5q59 0 103.5 -8t82.5 -18l-20 -117
q-26 9 -62 16.5t-72 7.5q-47 0 -67 -19t-20 -45q0 -24 20 -43t50 -38t64.5 -39t64.5 -46t50 -59t20 -78z" />
    <glyph glyph-name="afii10055" unicode="&#x406;" horiz-adv-x="296" 
d="M63 0v667h170v-667h-170z" />
    <glyph glyph-name="afii10056" unicode="&#x407;" horiz-adv-x="296" 
d="M63 0v667h170v-667h-170zM355 808q0 -35 -24 -59t-59 -24t-59 24t-24 59t24 59t59 24t59 -24t24 -59zM107 808q0 -35 -23 -59t-58 -24q-17 0 -32.5 6.5t-27 17.5t-18 26t-6.5 33t6.5 33t18 26t27 17.5t32.5 6.5q35 0 58 -24t23 -59z" />
    <glyph glyph-name="afii10057" unicode="&#x408;" horiz-adv-x="299" 
d="M242 31q0 -48 -11.5 -79.5t-32 -50.5t-49 -26.5t-62.5 -7.5q-24 0 -40 1.5t-28 3.5t-22 5t-22 6l23 100q7 -2 13.5 -3t13.5 -1q13 0 22 3.5t14.5 14t8 30.5t2.5 53v587h170v-636z" />
    <glyph glyph-name="afii10058" unicode="&#x409;" horiz-adv-x="957" 
d="M591 417q15 1 47.5 1.5t67.5 0.5q48 0 90 -9.5t73 -33t49 -62.5t18 -97q0 -65 -25 -106.5t-68 -66.5t-99 -34.5t-117 -9.5h-206v540h-144l-19 -390q-2 -47 -12.5 -78t-29 -49.5t-44.5 -26t-60 -7.5q-23 0 -40 1t-29.5 3.5t-22 5.5t-18.5 6l23 98q12 -3 26 -3
q23 0 31.5 15.5t10.5 47.5l23 504h475v-250zM762 208q0 54 -28 75.5t-77 21.5h-20t-21 -0.5t-17 -0.5h-8v-191h58q22 0 42.5 5.5t36 17t25 29.5t9.5 43z" />
    <glyph glyph-name="afii10059" unicode="&#x40a;" horiz-adv-x="958" 
d="M937 217q0 -65 -25 -106.5t-68 -66.5t-99 -34.5t-117 -9.5h-206v284h-189v-284h-170v667h170v-259h189v259h170v-250q15 1 47.5 1.5t67.5 0.5q48 0 90 -9.5t73 -33t49 -62.5t18 -97zM763 208q0 54 -28 75.5t-77 21.5h-20t-21 -0.5t-17 -0.5h-8v-191h58q22 0 42.5 5.5
t36 17t25 29.5t9.5 43z" />
    <glyph glyph-name="afii10060" unicode="&#x40b;" horiz-adv-x="726" 
d="M502 0v201q0 29 -7 47t-19.5 28.5t-29.5 14t-36 3.5q-15 0 -33.5 -2t-34.5 -6v-286h-170v541h-152l-20 126h513l-20 -126h-151v-136q29 6 58 9t55 3q39 0 77.5 -8.5t69.5 -31.5t50.5 -62.5t19.5 -100.5v-214h-170z" />
    <glyph glyph-name="afii10061" unicode="&#x40c;" horiz-adv-x="606" 
d="M401 0l-168 300v-300h-170v667h170v-277l163 277h187l-200 -314l226 -353h-208zM275 708l-58 78l186 168l82 -109z" />
    <glyph glyph-name="afii10062" unicode="&#x40e;" horiz-adv-x="594" 
d="M393 167q-15 -38 -34 -71t-43.5 -57t-56.5 -37.5t-74 -13.5q-26 0 -44 1.5t-32.5 3.5t-27.5 5.5t-28 8.5l26 109q10 -2 23 -5.5t37 -3.5q26 0 41.5 20.5t23.5 46.5l-196 493h188l109 -362l108 362h177zM473 885q-1 -83 -45.5 -126t-126.5 -43t-127 43t-45 126h89
q0 -28 19.5 -50t63.5 -22q45 0 64 22t20 50h88z" />
    <glyph glyph-name="afii10145" unicode="&#x40f;" horiz-adv-x="655" 
d="M400 0v-130h-145v130h-192v667h170v-539h188v539h170v-667h-191z" />
    <glyph glyph-name="afii10017" unicode="&#x410;" 
d="M436 0l-29 102h-199l-29 -102h-173l204 667h208l202 -667h-184zM308 515l-75 -302h150z" />
    <glyph glyph-name="afii10018" unicode="&#x411;" horiz-adv-x="599" 
d="M578 217q0 -65 -25 -106.5t-68 -66.5t-99 -34.5t-117 -9.5h-206v667h426l-20 -124h-236v-126q15 1 47.5 1.5t67.5 0.5q48 0 90 -9.5t73 -33t49 -62.5t18 -97zM404 208q0 54 -28 75.5t-77 21.5h-20t-21 -0.5t-17 -0.5h-8v-191h58q22 0 42.5 5.5t36 17t25 29.5t9.5 43z" />
    <glyph glyph-name="afii10019" unicode="&#x412;" horiz-adv-x="596" 
d="M567 189q0 -51 -16.5 -86.5t-52.5 -58.5t-93.5 -33.5t-138.5 -10.5h-203v667h195q76 0 131.5 -7t91 -26t52.5 -53t17 -88q0 -33 -8 -57.5t-22.5 -42t-33.5 -28t-41 -15.5q25 -4 47 -13.5t38.5 -27.5t26.5 -47.5t10 -72.5zM376 475q0 48 -26.5 66.5t-82.5 18.5h-35v-170
h42q52 0 77 20t25 65zM393 203q0 47 -29.5 71t-95.5 24h-36v-191h37q65 0 94.5 22.5t29.5 73.5z" />
    <glyph glyph-name="afii10020" unicode="&#x413;" horiz-adv-x="451" 
d="M447 667l-17 -137h-197v-530h-170v667h384z" />
    <glyph glyph-name="afii10021" unicode="&#x414;" horiz-adv-x="678" 
d="M511 -120v120h-362v-120h-149v228q37 9 59 31t35 58.5t18.5 88t8.5 120.5l12 261h470v-539h57v-248h-149zM433 540h-144l-6 -136q-3 -50 -6 -93.5t-10.5 -79t-20.5 -61.5t-35 -42h222v412z" />
    <glyph glyph-name="afii10022" unicode="&#x415;" horiz-adv-x="500" 
d="M63 0v667h414l-20 -124h-224v-143h178v-110h-178v-165h229l18 -125h-417z" />
    <glyph glyph-name="afii10024" unicode="&#x416;" horiz-adv-x="916" 
d="M-3 0l226 353l-200 314h187l163 -277v277h170v-277l163 277h187l-200 -314l226 -353h-208l-168 300v-300h-170v300l-168 -300h-208z" />
    <glyph glyph-name="afii10025" unicode="&#x417;" horiz-adv-x="524" 
d="M491 193q0 -55 -18.5 -94t-53 -63.5t-84 -36t-110.5 -11.5q-38 0 -72.5 4.5t-63.5 10.5t-52 12.5t-37 11.5l42 118q10 -4 25.5 -9.5t35.5 -10.5t43 -8.5t47 -3.5q52 0 84.5 18.5t32.5 72.5q0 45 -31 64t-93 19h-76v110h45q70 0 103.5 19.5t33.5 70.5q0 40 -27.5 54
t-70.5 14q-21 0 -43.5 -4t-41.5 -9.5t-33.5 -10.5t-19.5 -7l-41 110q13 6 34.5 13.5t49.5 14.5t62.5 12t73.5 5q52 0 96 -9t75.5 -29.5t49 -52.5t17.5 -77q0 -65 -31 -102t-81 -56q57 -14 93.5 -52.5t36.5 -107.5z" />
    <glyph glyph-name="afii10026" unicode="&#x418;" horiz-adv-x="658" 
d="M431 0v403l-206 -403h-162v667h165v-409l209 409h158v-667h-164z" />
    <glyph glyph-name="afii10027" unicode="&#x419;" horiz-adv-x="658" 
d="M431 0v403l-206 -403h-162v667h165v-409l209 409h158v-667h-164zM502 885q-1 -83 -45.5 -126t-126.5 -43t-127 43t-45 126h89q0 -28 19.5 -50t63.5 -22q45 0 64 22t20 50h88v0z" />
    <glyph glyph-name="afii10028" unicode="&#x41a;" horiz-adv-x="606" 
d="M401 0l-168 300v-300h-170v667h170v-277l163 277h187l-200 -314l226 -353h-208z" />
    <glyph glyph-name="afii10029" unicode="&#x41b;" horiz-adv-x="654" 
d="M591 0h-170v540h-144l-19 -390q-2 -47 -12.5 -78t-29 -49.5t-44.5 -26t-60 -7.5q-23 0 -40 1t-29.5 3.5t-22 5.5t-18.5 6l23 98q12 -3 26 -3q23 0 31.5 15.5t10.5 47.5l23 504h475v-667z" />
    <glyph glyph-name="afii10030" unicode="&#x41c;" horiz-adv-x="748" 
d="M547 0l-30 405l-96 -293h-103l-98 293l-28 -405h-168l65 667h167l118 -332l115 332h169l65 -667h-176z" />
    <glyph glyph-name="afii10031" unicode="&#x41d;" horiz-adv-x="655" 
d="M422 0v281h-189v-281h-170v667h170v-262h189v262h170v-667h-170z" />
    <glyph glyph-name="afii10032" unicode="&#x41e;" 
d="M588 334q0 -98 -17.5 -164.5t-52.5 -107t-86.5 -57.5t-118.5 -17q-68 0 -119 17t-86 57.5t-52.5 107t-17.5 164.5t17.5 164.5t52.5 106.5t86 57t119 17q67 0 118.5 -17t86.5 -57t52.5 -106.5t17.5 -164.5zM415 334q0 114 -21.5 170t-80.5 56t-80 -56t-21 -170t21 -170.5
t80 -56.5t80.5 56.5t21.5 170.5z" />
    <glyph glyph-name="afii10033" unicode="&#x41f;" horiz-adv-x="654" 
d="M421 0v540h-188v-540h-170v667h528v-667h-170z" />
    <glyph glyph-name="afii10034" unicode="&#x420;" horiz-adv-x="581" 
d="M557 454q0 -108 -72 -160t-200 -52h-52v-242h-170v667h208q84 0 139 -14t88 -41.5t46 -67t13 -90.5zM383 454q0 51 -26 75.5t-74 24.5h-50v-201h50q51 0 75.5 26.5t24.5 74.5z" />
    <glyph glyph-name="afii10035" unicode="&#x421;" horiz-adv-x="505" 
d="M484 20q-33 -14 -72.5 -23t-93.5 -9q-75 0 -128 19t-86.5 60.5t-49.5 107.5t-16 159q0 90 15 155.5t48 107.5t85 62t127 20q56 0 94 -9.5t68 -19.5l-33 -111q-23 8 -47 13.5t-51 5.5q-69 0 -100.5 -53.5t-31.5 -170.5q0 -106 30 -163.5t101 -57.5q28 0 54.5 6t52.5 16z
" />
    <glyph glyph-name="afii10036" unicode="&#x422;" horiz-adv-x="492" 
d="M470 530h-139v-530h-170v530h-139l-17 137h483z" />
    <glyph glyph-name="afii10037" unicode="&#x423;" horiz-adv-x="594" 
d="M393 167q-15 -38 -34 -71t-43.5 -57t-56.5 -37.5t-74 -13.5q-26 0 -44 1.5t-32.5 3.5t-27.5 5.5t-28 8.5l26 109q10 -2 23 -5.5t37 -3.5q26 0 41.5 20.5t23.5 46.5l-196 493h188l109 -362l108 362h177z" />
    <glyph glyph-name="afii10038" unicode="&#x424;" horiz-adv-x="804" 
d="M482 0h-160v56q-83 0 -138.5 21.5t-88.5 59t-47 88t-14 108.5t14 109t47 88.5t88.5 59.5t138.5 22v55h160v-55q83 0 138.5 -21.5t88.5 -59.5t47 -89t14 -109t-14 -108.5t-47 -88t-88.5 -59t-138.5 -21.5v-56zM206 333q0 -92 29.5 -129.5t86.5 -37.5v336
q-57 0 -86.5 -38.5t-29.5 -130.5zM482 166q57 0 86.5 37.5t29.5 129.5t-29.5 130.5t-86.5 38.5v-336z" />
    <glyph glyph-name="afii10039" unicode="&#x425;" horiz-adv-x="603" 
d="M403 0l-103 227l-107 -227h-195l202 338l-189 329h200l89 -215l94 215h197l-188 -330l202 -337h-202z" />
    <glyph glyph-name="afii10040" unicode="&#x426;" horiz-adv-x="667" 
d="M497 -120v120h-434v667h170v-539h188v539h170v-539h57v-248h-151z" />
    <glyph glyph-name="afii10041" unicode="&#x427;" horiz-adv-x="616" 
d="M383 0v268q-23 -7 -65.5 -13t-93.5 -6q-44 0 -78.5 9t-58 32t-36 61t-12.5 97v219h170v-204q0 -28 4 -45.5t12 -28t20.5 -14.5t29.5 -4q32 0 59 3.5t49 9.5v283h170v-667h-170z" />
    <glyph glyph-name="afii10042" unicode="&#x428;" horiz-adv-x="921" 
d="M63 0v667h170v-539h144v539h168v-539h143v539h170v-667h-795z" />
    <glyph glyph-name="afii10043" unicode="&#x429;" horiz-adv-x="934" 
d="M764 -120v120h-701v667h170v-539h144v539h168v-539h143v539h170v-539h57v-248h-151z" />
    <glyph glyph-name="afii10044" unicode="&#x42a;" horiz-adv-x="720" 
d="M699 217q0 -65 -25 -106.5t-68 -66.5t-99 -34.5t-117 -9.5h-206v533h-162l-17 134h351l-2 -8v-242q15 1 47.5 1.5t67.5 0.5q48 0 90 -9.5t73 -33t49 -62.5t18 -97zM525 208q0 54 -28 75.5t-77 21.5h-20t-21 -0.5t-17 -0.5h-8v-191h58q22 0 42.5 5.5t36 17t25 29.5t9.5 43
z" />
    <glyph glyph-name="afii10045" unicode="&#x42b;" horiz-adv-x="882" 
d="M649 0v667h170v-667h-170zM578 217q0 -65 -25 -106.5t-68 -66.5t-99 -34.5t-117 -9.5h-206v667h170v-250q15 1 47.5 1.5t67.5 0.5q48 0 90 -9.5t73 -33t49 -62.5t18 -97zM404 208q0 54 -28 75.5t-77 21.5h-20t-21 -0.5t-17 -0.5h-8v-191h58q22 0 42.5 5.5t36 17t25 29.5
t9.5 43z" />
    <glyph glyph-name="afii10046" unicode="&#x42c;" horiz-adv-x="599" 
d="M578 217q0 -65 -25 -106.5t-68 -66.5t-99 -34.5t-117 -9.5h-206v667h170v-250q15 1 47.5 1.5t67.5 0.5q48 0 90 -9.5t73 -33t49 -62.5t18 -97zM404 208q0 54 -28 75.5t-77 21.5h-20t-21 -0.5t-17 -0.5h-8v-191h58q22 0 42.5 5.5t36 17t25 29.5t9.5 43z" />
    <glyph glyph-name="afii10047" unicode="&#x42d;" horiz-adv-x="506" 
d="M52 135q26 -10 54.5 -16t56.5 -6q62 0 92.5 44t36.5 126h-162v120h161q-8 81 -39.5 118t-89.5 37q-27 0 -53 -5.5t-49 -13.5l-33 111l30 10t33 9.5t39.5 7t49.5 2.5q149 0 219 -82t70 -263q0 -93 -17 -159t-52.5 -107.5t-90 -60.5t-129.5 -19q-54 0 -91 9t-70 23z" />
    <glyph glyph-name="afii10048" unicode="&#x42e;" horiz-adv-x="938" 
d="M900 334q0 -98 -17.5 -164.5t-52.5 -107t-86.5 -57.5t-118.5 -17q-63 0 -111.5 14.5t-83 49t-54.5 90.5t-25 139h-118v-281h-170v667h170v-262h120q6 77 26.5 129.5t54.5 84.5t82 46t109 14q67 0 118.5 -17t86.5 -57t52.5 -106.5t17.5 -164.5zM727 334q0 114 -21.5 170
t-80.5 56t-80 -56t-21 -170t21 -170.5t80 -56.5t80.5 56.5t21.5 170.5z" />
    <glyph glyph-name="afii10049" unicode="&#x42f;" horiz-adv-x="597" 
d="M365 0v265h-33l-128 -265h-194l162 287q-25 7 -49 21t-43 35.5t-31 52t-12 71.5q0 60 19 99t56 61.5t92 31t127 8.5h203v-667h-169zM365 555h-47q-51 0 -74 -19t-23 -71q0 -50 24 -71.5t73 -21.5h47v183z" />
    <glyph glyph-name="afii10065" unicode="&#x430;" horiz-adv-x="547" 
d="M353 0l-14 65q-9 -10 -23 -23t-34 -24.5t-46 -19.5t-60 -8q-32 0 -60 8.5t-49 27t-33 48t-12 70.5q0 98 75.5 142.5t216.5 44.5h18v5q0 33 -8 51.5t-21.5 27.5t-31.5 11t-38 2q-35 0 -77 -8t-83 -22l-20 100q47 17 101.5 28.5t107.5 11.5t97 -10t75 -32.5t48 -58
t17 -87.5v-350h-146zM332 250h-31q-63 0 -91 -21t-28 -69q0 -32 13 -49t44 -17q37 0 59.5 18.5t33.5 33.5v104z" />
    <glyph glyph-name="afii10066" unicode="&#x431;" horiz-adv-x="578" 
d="M547 262q0 -79 -18.5 -131.5t-52.5 -83.5t-81 -44t-105 -13q-59 0 -106.5 13t-81 47.5t-51.5 96t-18 157.5q0 75 19 136.5t59.5 114t103 97t149.5 85.5l65 30l58 -130l-93 -38q-51 -21 -86.5 -41t-59 -40t-36.5 -40t-19 -42q19 26 55 45.5t79 19.5q101 0 160.5 -57.5
t59.5 -181.5zM290 399q-48 0 -66 -37.5t-18 -112.5q0 -82 17.5 -119.5t66.5 -37.5q50 0 67.5 37.5t17.5 119.5q0 78 -17.5 114t-67.5 36z" />
    <glyph glyph-name="afii10067" unicode="&#x432;" horiz-adv-x="547" 
d="M518 149q0 -38 -11 -65.5t-38.5 -46.5t-74 -28t-117.5 -9h-226v528h199q66 0 113.5 -5.5t78 -20t45 -41t14.5 -68.5q0 -24 -8.5 -43.5t-23 -33.5t-33 -23.5t-38.5 -13.5q22 -3 44 -11t38.5 -23t27 -38.5t10.5 -57.5zM214 432v-117h46q32 0 53 13t21 47q0 35 -21.5 46
t-60.5 11h-38zM214 229v-133h58q77 0 77 69q0 36 -21.5 50t-60.5 14h-53z" />
    <glyph glyph-name="afii10068" unicode="&#x433;" horiz-adv-x="380" 
d="M362 415h-145v-415h-166v528h327z" />
    <glyph glyph-name="afii10069" unicode="&#x434;" horiz-adv-x="628" 
d="M469 -130v130h-322v-130h-142v225q53 0 75.5 50.5t26.5 147.5l10 235h440v-415h54v-243h-142zM391 417h-123l-5 -135q-2 -62 -11 -104.5t-43 -64.5h182v304z" />
    <glyph glyph-name="afii10070" unicode="&#x435;" horiz-adv-x="549" 
d="M523 268v-18t-1 -19h-321q1 -36 10 -61t24 -40t35 -21.5t44 -6.5q28 0 67 8t81 29l34 -98q-11 -8 -31.5 -17t-48.5 -16.5t-62 -12.5t-72 -5q-51 0 -96.5 13.5t-80 44.5t-54.5 81.5t-20 125.5q0 76 20.5 130t55 88t80 49.5t95.5 15.5q53 0 97 -16t76 -49t50 -84t18 -121z
M353 318q-1 41 -8 65t-17.5 36t-23.5 15.5t-25 3.5t-25.5 -4.5t-25 -17.5t-19 -36.5t-8.5 -61.5h152z" />
    <glyph glyph-name="afii10072" unicode="&#x436;" horiz-adv-x="873" 
d="M-19 0l227 295l-201 233h185l161 -200v200h167v-200l161 200h185l-201 -233l227 -295h-202l-170 242v-242h-167v242l-170 -242h-202z" />
    <glyph glyph-name="afii10073" unicode="&#x437;" horiz-adv-x="439" 
d="M410 151q0 -44 -17 -74.5t-47.5 -49.5t-72 -28t-89.5 -9q-63 0 -107.5 8t-73.5 21l31 101q12 -5 42.5 -11.5t65.5 -6.5q19 0 36.5 3t31 10t21.5 19.5t8 31.5q0 37 -24.5 47.5t-68.5 10.5h-58v90h48q49 0 68 14.5t19 49.5q0 29 -24 40t-58 11q-31 0 -59 -7t-35 -9l-31 99
q21 8 65 17t111 9q41 0 78 -7.5t64.5 -23t43.5 -40.5t16 -61q0 -30 -8.5 -52t-22.5 -37t-32.5 -24.5t-39.5 -13.5q24 -4 45.5 -12.5t38 -23.5t26 -37.5t9.5 -54.5z" />
    <glyph glyph-name="afii10074" unicode="&#x438;" horiz-adv-x="599" 
d="M389 0v317l-181 -317h-157v528h159v-315l182 315h156v-528h-159z" />
    <glyph glyph-name="afii10075" unicode="&#x439;" horiz-adv-x="599" 
d="M389 0v317l-181 -317h-157v528h159v-315l182 315h156v-528h-159zM472 762q-1 -83 -45.5 -126t-126.5 -43t-127 43t-45 126h89q0 -28 19.5 -50t63.5 -22q45 0 64 22t20 50h88v0z" />
    <glyph glyph-name="afii10076" unicode="&#x43a;" horiz-adv-x="572" 
d="M389 0l-170 242v-242h-167v528h167v-200l161 200h185l-201 -233l227 -295h-202z" />
    <glyph glyph-name="afii10077" unicode="&#x43b;" horiz-adv-x="604" 
d="M387 0v415h-127l-11 -276q-2 -40 -9.5 -68t-23.5 -46t-41.5 -26.5t-62.5 -8.5q-44 0 -68 5.5t-41 12.5l24 95q2 -1 9.5 -3t18.5 -2q20 0 27.5 15t9.5 48l17 367h444v-528h-166z" />
    <glyph glyph-name="afii10078" unicode="&#x43c;" horiz-adv-x="656" 
d="M472 0l-23 318l-78 -235h-90l-75 235l-26 -318h-151l59 527h150l94 -265l90 265h151l54 -527h-155z" />
    <glyph glyph-name="afii10079" unicode="&#x43d;" horiz-adv-x="599" 
d="M382 0v214h-165v-214h-166v528h166v-203h165v203h166v-528h-166z" />
    <glyph glyph-name="afii10080" unicode="&#x43e;" horiz-adv-x="574" 
d="M543 264q0 -80 -18.5 -132.5t-52 -84t-80.5 -44.5t-105 -13t-105 13t-80.5 44.5t-52 84t-18.5 132.5t18.5 132.5t52 84t80.5 44.5t105 13t105 -13t80.5 -44.5t52 -84t18.5 -132.5zM372 264q0 93 -18 132.5t-67 39.5t-67 -39.5t-18 -132.5t18 -132.5t67 -39.5t67 39.5
t18 132.5z" />
    <glyph glyph-name="afii10081" unicode="&#x43f;" horiz-adv-x="599" 
d="M382 0v415h-165v-415h-166v528h497v-528h-166z" />
    <glyph glyph-name="afii10082" unicode="&#x440;" horiz-adv-x="601" 
d="M571 263q0 -76 -17 -128t-44.5 -84.5t-63 -46.5t-72.5 -14q-86 0 -157 38v-236h-165v736h147l13 -70q13 15 32.5 29t43.5 25.5t51 18.5t56 7q33 0 64.5 -14t56.5 -46.5t40 -85t15 -129.5zM400 260q0 46 -5 76t-15 46.5t-25.5 23t-35.5 6.5q-13 0 -27 -5.5t-27.5 -14
t-25 -19.5t-20.5 -22v-229q21 -14 46.5 -19t49.5 -5q21 0 36.5 8t26.5 27t16.5 50t5.5 77z" />
    <glyph glyph-name="afii10083" unicode="&#x441;" horiz-adv-x="433" 
d="M432 22q-29 -12 -69 -22t-91 -10q-121 0 -180.5 65t-59.5 209t59.5 209t180.5 65q51 0 87 -8.5t63 -19.5l-33 -102q-19 8 -41 13t-45 5q-26 0 -45 -7.5t-31 -26.5t-17.5 -50t-5.5 -78q0 -46 5.5 -76.5t17.5 -49t30 -26t44 -7.5q25 0 50.5 6t46.5 14z" />
    <glyph glyph-name="afii10084" unicode="&#x442;" horiz-adv-x="466" 
d="M449 413h-133v-413h-166v413h-134l-13 115h461z" />
    <glyph glyph-name="afii10085" unicode="&#x443;" horiz-adv-x="525" 
d="M323 -37q-23 -65 -43 -101t-41 -54t-43 -22t-49 -4q-55 0 -89 18l22 109q5 -2 19 -5t29 -3q17 0 31 15.5t28 57.5q1 3 2 7q1 3 2 5t1 3l-189 539h172l89 -366l94 366h164z" />
    <glyph glyph-name="afii10086" unicode="&#x444;" horiz-adv-x="878" 
d="M847 265q0 -51 -11 -100t-36 -88t-65.5 -63t-99.5 -24q-38 0 -66 15t-48 33v-246h-164v253q-19 -23 -51.5 -39t-70.5 -16q-60 0 -99.5 25t-63 64.5t-32.5 88.5t-9 97q0 51 11 100t35.5 87.5t65 62t100.5 23.5q38 0 66.5 -16t47.5 -34v241h164v-247q19 23 51.5 39.5
t70.5 16.5q61 0 100.5 -24.5t62.5 -63.5t32 -88t9 -97zM676 265q0 35 -3.5 64t-12 50t-23.5 33t-38 12t-38 -11.5t-23.5 -32t-11.5 -50t-3 -65.5t2.5 -65.5t11 -51t23 -33t38.5 -11.5q23 0 38 11t24 32t12.5 51t3.5 67zM355 265q0 36 -3 65.5t-11.5 50t-23.5 32t-38 11.5
t-38 -11t-23.5 -31t-12 -50t-3.5 -67q0 -35 3.5 -64t12.5 -51t24 -34t38 -12q24 0 38.5 11.5t23 33t11 51t2.5 65.5z" />
    <glyph glyph-name="afii10087" unicode="&#x445;" horiz-adv-x="523" 
d="M348 0l-93 175l-86 -175h-165l168 278l-154 250h171l79 -162l75 162h164l-156 -258l168 -270h-171z" />
    <glyph glyph-name="afii10088" unicode="&#x446;" horiz-adv-x="618" 
d="M459 -130v130h-408v528h166v-415h164v415h166v-415h54v-243h-142z" />
    <glyph glyph-name="afii10089" unicode="&#x447;" horiz-adv-x="581" 
d="M364 0v207q-25 -16 -72 -26.5t-101 -10.5q-84 0 -120.5 46t-36.5 135v177h166v-122q0 -32 2.5 -54.5t9 -36t19.5 -19.5t34 -6q12 0 26.5 2.5t28.5 7t26 10t18 10.5v208h166v-528h-166z" />
    <glyph glyph-name="afii10090" unicode="&#x448;" horiz-adv-x="852" 
d="M51 0v528h166v-415h130v415h158v-415h130v415h166v-528h-750z" />
    <glyph glyph-name="afii10091" unicode="&#x449;" horiz-adv-x="872" 
d="M713 -130v130h-662v528h166v-415h130v415h158v-415h130v415h166v-415h54v-243h-142z" />
    <glyph glyph-name="afii10092" unicode="&#x44a;" horiz-adv-x="651" 
d="M634 170q0 -50 -21.5 -83t-57 -52.5t-81 -27t-93.5 -7.5h-221v415h-144l-13 113h323v-197q8 1 21 1.5t28 1t30 0.5h27q41 0 78 -8t64.5 -26.5t43.5 -50t16 -79.5zM326 96h60q33 0 57 16.5t24 52.5q0 41 -22.5 55.5t-60.5 14.5h-18t-18.5 -0.5t-14.5 -0.5h-7v-138z" />
    <glyph glyph-name="afii10093" unicode="&#x44b;" horiz-adv-x="788" 
d="M570 0v528h167v-528h-167zM525 170q0 -50 -21.5 -83t-57 -52.5t-81 -27t-93.5 -7.5h-221v528h166v-197q8 1 21 1.5t28 1t30 0.5h27q41 0 78 -8t64.5 -26.5t43.5 -50t16 -79.5zM217 96h60q33 0 57 16.5t24 52.5q0 41 -22.5 55.5t-60.5 14.5h-18t-18.5 -0.5t-14.5 -0.5h-7
v-138z" />
    <glyph glyph-name="afii10094" unicode="&#x44c;" horiz-adv-x="542" 
d="M525 170q0 -50 -21.5 -83t-57 -52.5t-81 -27t-93.5 -7.5h-221v528h166v-197q8 1 21 1.5t28 1t30 0.5h27q41 0 78 -8t64.5 -26.5t43.5 -50t16 -79.5zM217 96h60q33 0 57 16.5t24 52.5q0 41 -22.5 55.5t-60.5 14.5h-18t-18.5 -0.5t-14.5 -0.5h-7v-138z" />
    <glyph glyph-name="afii10095" unicode="&#x44d;" horiz-adv-x="444" 
d="M37 123q21 -8 47.5 -14.5t51.5 -6.5q21 0 39.5 5.5t32.5 19.5t23.5 38t11.5 61h-149v88h148q-4 65 -27.5 90t-68.5 25q-23 0 -52 -5.5t-48 -13.5l-33 99q27 11 62 20t86 9q57 0 103.5 -16.5t79.5 -50t51 -86t18 -124.5t-17.5 -123.5t-49.5 -84t-78.5 -48t-104.5 -15.5
q-51 0 -91 11.5t-69 23.5z" />
    <glyph glyph-name="afii10096" unicode="&#x44e;" horiz-adv-x="862" 
d="M831 264q0 -80 -18.5 -132.5t-52 -84t-80.5 -44.5t-105 -13q-53 0 -97 10.5t-77 36.5t-53.5 69t-26.5 108h-104v-214h-166v528h166v-203h105q7 61 28 102t53.5 66t76 35t95.5 10q58 0 105 -13t80.5 -44.5t52 -84t18.5 -132.5zM660 264q0 93 -18 132.5t-67 39.5t-67 -39.5
t-18 -132.5t18 -132.5t67 -39.5t67 39.5t18 132.5z" />
    <glyph glyph-name="afii10097" unicode="&#x44f;" horiz-adv-x="532" 
d="M315 0v204h-25l-106 -204h-178l137 220q-22 4 -43 16t-37.5 31.5t-26.5 45.5t-10 58q0 46 16 76.5t48 48.5t79.5 25t110.5 7h201v-528h-166zM315 432h-38q-40 0 -61.5 -14t-21.5 -51q0 -38 18 -53t56 -15h47v133z" />
    <glyph glyph-name="afii10071" unicode="&#x451;" horiz-adv-x="549" 
d="M523 268v-18t-1 -19h-321q1 -36 10 -61t24 -40t35 -21.5t44 -6.5q28 0 67 8t81 29l34 -98q-11 -8 -31.5 -17t-48.5 -16.5t-62 -12.5t-72 -5q-51 0 -96.5 13.5t-80 44.5t-54.5 81.5t-20 125.5q0 76 20.5 130t55 88t80 49.5t95.5 15.5q53 0 97 -16t76 -49t50 -84t18 -121z
M353 318q-1 41 -8 65t-17.5 36t-23.5 15.5t-25 3.5t-25.5 -4.5t-25 -17.5t-19 -36.5t-8.5 -61.5h152v0zM483 685q0 -35 -24 -59t-59 -24t-59 24t-24 59t24 59t59 24t59 -24t24 -59zM235 685q0 -35 -23 -59t-58 -24q-17 0 -32.5 6.5t-27 17.5t-18 26t-6.5 33t6.5 33t18 26
t27 17.5t32.5 6.5q35 0 58 -24t23 -59z" />
    <glyph glyph-name="afii10099" unicode="&#x452;" horiz-adv-x="600" 
d="M552 -68q0 -39 -6.5 -67t-22 -46.5t-42.5 -27.5t-67 -9q-44 0 -70.5 7.5t-51.5 17.5l24 95q6 -2 17 -4.5t22 -2.5q22 0 26 18t4 44v333q0 33 -2 55t-8 35t-17 18.5t-30 5.5q-14 0 -29 -4.5t-29.5 -12t-27 -16.5t-21.5 -17v-354h-167v552h-46l-9 99h58l2 78h159v-78h135
l-12 -99h-121v-98q10 9 27.5 22t41 24.5t52.5 19.5t62 8q43 0 71.5 -13.5t45.5 -37.5t24.5 -57.5t7.5 -72.5v-415v0z" />
    <glyph glyph-name="afii10100" unicode="&#x453;" horiz-adv-x="380" 
d="M362 415h-145v-415h-166v528h327zM173 585l-58 78l186 168l82 -109z" />
    <glyph glyph-name="afii10101" unicode="&#x454;" horiz-adv-x="444" 
d="M441 25q-29 -12 -69 -23.5t-91 -11.5q-58 0 -104.5 15.5t-78.5 48t-49.5 84t-17.5 123.5t18 124.5t51 86t79.5 50t103.5 16.5q51 0 86 -9t62 -20l-33 -99q-19 8 -48 13.5t-52 5.5q-45 0 -68.5 -25t-27.5 -90h148v-88h-149q2 -37 11.5 -61t23.5 -38t32.5 -19.5t39.5 -5.5
q25 0 51.5 6.5t47.5 14.5l34 -98v0z" />
    <glyph glyph-name="afii10102" unicode="&#x455;" horiz-adv-x="429" 
d="M406 150q0 -36 -11 -65.5t-35.5 -50.5t-63 -32.5t-93.5 -11.5q-60 0 -105.5 11t-77.5 25l17 98q11 -4 26.5 -9t32.5 -9t34 -7t31 -3q36 0 57 8t21 40q0 21 -15.5 37.5t-39 31.5t-51 30.5t-51 35.5t-39 46.5t-15.5 62.5q0 73 46 111.5t149 38.5q52 0 89.5 -7t70.5 -18
l-16 -102q-20 7 -51 14t-60 7q-36 0 -53 -8.5t-17 -29.5q0 -18 16.5 -32t40.5 -28.5t53 -30t53 -37t40.5 -49.5t16.5 -67z" />
    <glyph glyph-name="afii10103" unicode="&#x456;" horiz-adv-x="271" 
d="M230 684q0 -40 -27.5 -67t-66.5 -27q-20 0 -37 7t-30 20t-20.5 30t-7.5 37t7.5 37.5t20.5 30t30 20t37 7.5q19 0 36.5 -7.5t30 -20t20 -30t7.5 -37.5zM52 0v528h167v-528h-167z" />
    <glyph glyph-name="afii10104" unicode="&#x457;" horiz-adv-x="271" 
d="M52 0v528h167v-528h-167zM342 685q0 -35 -24 -59t-59 -24t-59 24t-24 59t24 59t59 24t59 -24t24 -59zM94 685q0 -35 -23 -59t-58 -24q-17 0 -32.5 6.5t-27 17.5t-18 26t-6.5 33t6.5 33t18 26t27 17.5t32.5 6.5q35 0 58 -24t23 -59z" />
    <glyph glyph-name="afii10105" unicode="&#x458;" horiz-adv-x="271" 
d="M230 684q0 -40 -27.5 -67t-66.5 -27q-20 0 -37 7t-30 20t-20.5 30t-7.5 37t7.5 37.5t20.5 30t30 20t37 7.5q19 0 36.5 -7.5t30 -20t20 -30t7.5 -37.5zM219 -68q0 -39 -6.5 -67t-22 -46.5t-42.5 -27.5t-67 -9q-44 0 -70.5 7.5t-51.5 17.5l24 95q6 -2 17 -4.5t22 -2.5
q23 0 27 18t4 44v571h166v-596z" />
    <glyph glyph-name="afii10106" unicode="&#x459;" horiz-adv-x="872" 
d="M547 528v-197q8 1 21 1.5t28 1t30 0.5h27q41 0 78 -8t64.5 -26.5t43.5 -50t16 -79.5q0 -50 -21.5 -83t-57 -52.5t-81 -27t-93.5 -7.5h-221v415h-121l-11 -276q-2 -40 -9.5 -68t-23.5 -46t-41.5 -26.5t-62.5 -8.5q-44 0 -68 5.5t-41 12.5l24 95q2 -1 9.5 -3t18.5 -2
q20 0 27.5 15t9.5 48l17 367h438zM547 96h60q33 0 57 16.5t24 52.5q0 41 -22.5 55.5t-60.5 14.5h-18t-18.5 -0.5t-14.5 -0.5h-7v-138z" />
    <glyph glyph-name="afii10107" unicode="&#x45a;" horiz-adv-x="868" 
d="M851 170q0 -50 -21.5 -83t-57 -52.5t-81 -27t-93.5 -7.5h-221v218h-160v-218h-166v528h166v-201h160v201h166v-197q8 1 21 1.5t28 1t30 0.5h27q41 0 78 -8t64.5 -26.5t43.5 -50t16 -79.5zM543 96h60q33 0 57 16.5t24 52.5q0 41 -22.5 55.5t-60.5 14.5h-18t-18.5 -0.5
t-14.5 -0.5h-7v-138z" />
    <glyph glyph-name="afii10108" unicode="&#x45b;" horiz-adv-x="600" 
d="M-1 651h58l2 78h159v-78h135l-12 -99h-121v-98q10 9 27.5 22t41 24.5t52.5 19.5t62 8q43 0 71.5 -13.5t45.5 -37.5t24.5 -57.5t7.5 -72.5v-347h-167v290q0 33 -2 55t-8 35t-17 18.5t-30 5.5q-14 0 -29 -4.5t-29.5 -12t-27 -16.5t-21.5 -17v-354h-167v552h-46z" />
    <glyph glyph-name="afii10109" unicode="&#x45c;" horiz-adv-x="572" 
d="M389 0l-170 242v-242h-167v528h167v-200l161 200h185l-201 -233l227 -295h-202zM268 585l-58 78l186 168l82 -109z" />
    <glyph glyph-name="afii10110" unicode="&#x45e;" horiz-adv-x="525" 
d="M323 -37q-23 -65 -43 -101t-41 -54t-43 -22t-49 -4q-55 0 -89 18l22 109q5 -2 19 -5t29 -3q17 0 31 15.5t28 57.5q1 3 2 7q1 3 2 5t1 3l-189 539h172l89 -366l94 366h164zM435 762q-1 -83 -45.5 -126t-126.5 -43t-127 43t-45 126h89q0 -28 19.5 -50t63.5 -22q45 0 64 22
t20 50h88z" />
    <glyph glyph-name="afii10193" unicode="&#x45f;" horiz-adv-x="599" 
d="M370 0v-130h-141v130h-178v528h166v-419h164v419h167v-528h-178z" />
    <glyph glyph-name="afii10050" unicode="&#x490;" horiz-adv-x="451" 
d="M233 543v-543h-170v667h223v131h153v-255h-206z" />
    <glyph glyph-name="afii10098" unicode="&#x491;" horiz-adv-x="380" 
d="M217 415v-415h-166v528h179v122h141v-235h-154z" />
    <glyph glyph-name="endash" unicode="&#x2013;" horiz-adv-x="500" 
d="M23 251v132h454v-132h-454z" />
    <glyph glyph-name="emdash" unicode="&#x2014;" horiz-adv-x="1000" 
d="M58 253v129h884v-129h-884z" />
    <glyph glyph-name="uni2015" unicode="&#x2015;" horiz-adv-x="1000" 
d="M58 253v129h884v-129h-884z" />
    <glyph glyph-name="quoteleft" unicode="&#x2018;" horiz-adv-x="208" 
d="M185 717q-6 -10 -13 -22t-13 -24.5t-10 -24.5t-4 -22q0 -9 4.5 -17.5t10 -18.5t10 -22t4.5 -27q0 -32 -22 -52.5t-51 -20.5q-36 0 -57 24t-21 59q0 26 11.5 51.5t27.5 51.5q15 26 32 50.5t34 48.5z" />
    <glyph glyph-name="quoteright" unicode="&#x2019;" horiz-adv-x="208" 
d="M185 668q0 -26 -11 -51.5t-27 -51.5q-15 -26 -32 -51t-34 -49l-58 35q13 19 27 46t14 47q0 9 -4.5 17.5t-10 18.5t-10 22t-4.5 27q0 32 22 52t51 20q36 0 56.5 -23.5t20.5 -58.5z" />
    <glyph glyph-name="quotesinglbase" unicode="&#x201a;" horiz-adv-x="208" 
d="M185 43q0 -26 -11 -51.5t-27 -51.5q-15 -26 -32 -50.5t-34 -48.5l-58 34q13 19 27 46t14 47q0 9 -4.5 17.5t-10 18.5t-10 22t-4.5 27q0 32 22 52t51 20q36 0 56.5 -23.5t20.5 -58.5z" />
    <glyph glyph-name="quotedblleft" unicode="&#x201c;" horiz-adv-x="394" 
d="M370 717q-6 -10 -13 -22t-13 -24.5t-10 -24.5t-4 -22q0 -9 4.5 -17.5t10 -18.5t10 -22t4.5 -27q0 -32 -22.5 -52.5t-51.5 -20.5q-36 0 -56.5 24t-20.5 59q0 26 11.5 51.5t27.5 51.5q15 26 32 50.5t34 48.5zM186 717q-6 -10 -13 -22t-13 -24.5t-10 -24.5t-4 -22
q0 -9 4 -17.5t9.5 -18.5t9.5 -21.5t4 -27.5q0 -32 -21.5 -52.5t-50.5 -20.5q-36 0 -57 24t-21 59q0 26 11.5 51.5t27.5 51.5q15 26 32 50.5t34 48.5z" />
    <glyph glyph-name="quotedblright" unicode="&#x201d;" horiz-adv-x="394" 
d="M371 668q0 -26 -11.5 -51.5t-27.5 -51.5q-15 -26 -32 -51t-34 -49l-58 35q13 19 26.5 46t13.5 47q0 9 -4.5 17.5t-9.5 18t-9.5 21.5t-4.5 28q0 32 22 52t51 20q36 0 57 -23.5t21 -58.5zM185 668q0 -26 -11 -51.5t-27 -51.5q-15 -26 -32 -51t-34 -49l-58 35q13 19 27 46
t14 47q0 9 -4.5 17.5t-10 18.5t-10 22t-4.5 27q0 32 22 52t51 20q36 0 56.5 -23.5t20.5 -58.5z" />
    <glyph glyph-name="quotedblbase" unicode="&#x201e;" horiz-adv-x="394" 
d="M371 43q0 -26 -11.5 -51.5t-27.5 -51.5q-15 -26 -32 -50.5t-34 -48.5l-58 34q13 19 26.5 46t13.5 47q0 9 -4.5 17.5t-9.5 18t-9.5 21.5t-4.5 28q0 32 22 52t51 20q36 0 57 -23.5t21 -58.5zM185 43q0 -26 -11 -51.5t-27 -51.5q-15 -26 -32 -50.5t-34 -48.5l-58 34
q13 19 27 46t14 47q0 9 -4.5 17.5t-10 18.5t-10 22t-4.5 27q0 32 22 52t51 20q36 0 56.5 -23.5t20.5 -58.5z" />
    <glyph glyph-name="dagger" unicode="&#x2020;" horiz-adv-x="559" 
d="M354 350v-495h-151v495h-155v127h155v190h151v-190h157v-127h-157z" />
    <glyph glyph-name="daggerdbl" unicode="&#x2021;" horiz-adv-x="559" 
d="M354 65v-210h-151v210h-155v128h155v167h-155v127h155v180h151v-180h157v-127h-157v-167h157v-128h-157z" />
    <glyph glyph-name="bullet" unicode="&#x2022;" horiz-adv-x="489" 
d="M429 345q0 -38 -14.5 -71.5t-39.5 -58.5t-58.5 -39.5t-71.5 -14.5t-71.5 14.5t-58.5 39.5t-39.5 58.5t-14.5 71.5t14.5 71.5t39.5 58.5t58.5 39.5t71.5 14.5t71.5 -14.5t58.5 -39.5t39.5 -58.5t14.5 -71.5z" />
    <glyph glyph-name="ellipsis" unicode="&#x2026;" horiz-adv-x="798" 
d="M759 86q0 -41 -28 -69.5t-69 -28.5t-69.5 28.5t-28.5 69.5t28.5 69t69.5 28t69 -28t28 -69zM496 86q0 -41 -27.5 -69.5t-68.5 -28.5t-69.5 28.5t-28.5 69.5t28.5 69t69.5 28t68.5 -28t27.5 -69zM234 86q0 -41 -28 -69.5t-69 -28.5t-69.5 28.5t-28.5 69.5t28.5 69t69.5 28
t69 -28t28 -69z" />
    <glyph glyph-name="perthousand" unicode="&#x2030;" horiz-adv-x="1521" 
d="M1488 227q0 -126 -44 -185.5t-150 -59.5q-53 0 -89.5 14.5t-59.5 45t-33 76.5t-10 109q0 62 10 108t33 76t59.5 45t89.5 15q106 0 150 -60t44 -184zM1054 227q0 -126 -44 -185.5t-150 -59.5q-53 0 -89.5 14.5t-59.5 45t-33 76.5t-10 109q0 62 10 108t33 76t59.5 45
t89.5 15q106 0 150 -60t44 -184zM417 -10h-126l380 690h125zM419 445q0 -126 -43.5 -186t-149.5 -60q-53 0 -89.5 15t-59.5 45t-33 76.5t-10 109.5q0 62 10 107.5t33 75.5t59.5 45t89.5 15q106 0 149.5 -59.5t43.5 -183.5zM1357 227q0 72 -12.5 113t-50.5 41t-50 -41
t-12 -113q0 -74 12 -114.5t50 -40.5t50.5 40.5t12.5 114.5zM923 227q0 72 -12.5 113t-50.5 41t-50 -41t-12 -113q0 -74 12 -114.5t50 -40.5t50.5 40.5t12.5 114.5zM288 445q0 72 -12 112.5t-50 40.5t-50.5 -40.5t-12.5 -112.5q0 -74 12.5 -115t50.5 -41t50 41t12 115z" />
    <glyph glyph-name="guilsinglleft" unicode="&#x2039;" horiz-adv-x="317" 
d="M204 85l-178 202l178 202l71 -59l-108 -142l109 -143z" />
    <glyph glyph-name="guilsinglright" unicode="&#x203a;" horiz-adv-x="317" 
d="M113 85l-70 59l107 142l-109 143l72 60l179 -202z" />
    <glyph glyph-name="fraction" unicode="&#x2044;" horiz-adv-x="557" 
d="M153 -3h-128l380 690h127z" />
    <glyph glyph-name="fraction" unicode="&#x2215;" horiz-adv-x="557" 
d="M153 -3h-128l380 690h127z" />
    <glyph glyph-name="Euro" unicode="&#x20ac;" horiz-adv-x="550" 
d="M533 23q-26 -12 -71 -23t-97 -11q-108 0 -178 60.5t-84 184.5h-77l16 70h57q-1 9 -1 15v15v13t1 13h-73l17 70h59q15 127 85 187.5t179 60.5q48 0 91 -9.5t71 -19.5l-31 -106q-22 8 -46 14t-64 6q-45 0 -73 -36.5t-36 -96.5h186l-15 -70h-177q-1 -8 -1 -13v-13v-15t1 -15
h168l-15 -70h-146q5 -58 33 -93.5t78 -35.5q38 0 64 8t47 16z" />
    <glyph glyph-name="afii61352" unicode="&#x2116;" horiz-adv-x="1012" 
d="M989 496q0 -55 -12.5 -90.5t-35 -56t-54 -28.5t-69.5 -8t-69.5 8t-54 28.5t-35 56t-12.5 90.5t12.5 90.5t35 56t54 28.5t69.5 8t69.5 -8t54 -28.5t35 -56t12.5 -90.5zM657 167v98h323v-98h-323zM818 607q-28 0 -37.5 -27t-9.5 -84t9.5 -84.5t37.5 -27.5q29 0 38.5 27.5
t9.5 84.5t-9.5 84t-38.5 27zM407 0l-194 404v-404h-150v667h163l197 -409v409h150v-667h-166z" />
    <glyph glyph-name="trademark" unicode="&#x2122;" horiz-adv-x="888" 
d="M740 269l-25 282l-2 -2l-62 -205h-72l-64 207l-1 -2l-25 -280h-119l55 460h120l72 -229l2 1l70 228h122l55 -460h-126zM356 630h-98v-361h-123v361h-97l-13 99h345z" />
    <glyph glyph-name="Ohm" unicode="&#x2126;" horiz-adv-x="637" 
d="M425 370q0 39 -4 74t-15.5 60.5t-32.5 40.5t-55 15q-33 0 -54 -15t-32.5 -40.5t-15.5 -60t-4 -73.5q0 -89 25 -152.5t59 -96.5v-122h-256v125h118q-21 16 -42.5 41t-38.5 57.5t-28 71t-11 81.5q0 69 15 125t48.5 95.5t87 61t129.5 21.5t129.5 -21.5t87.5 -60.5t49 -95
t15 -125q0 -43 -11 -82t-29 -71t-39.5 -57.5t-42.5 -41.5h120v-125h-257v122q34 33 59.5 96.5t25.5 151.5z" />
    <glyph glyph-name="uni2206" unicode="&#x2206;" 
d="M6 0l204 667h208l202 -667h-614zM308 514l-100 -390h198z" />
    <glyph glyph-name="product" unicode="&#x220f;" horiz-adv-x="775" 
d="M541 -208v751h-308v-751h-170v875h648v-875h-170z" />
    <glyph glyph-name="summation" unicode="&#x2211;" horiz-adv-x="614" 
d="M38 -208v115l176 332l-170 313v115h543l-26 -128h-341l160 -297l-170 -322h364l24 -128h-560z" />
    <glyph glyph-name="minus" unicode="&#x2212;" horiz-adv-x="550" 
d="M54 268v125h441v-125h-441z" />
    <glyph glyph-name="radical" unicode="&#x221a;" horiz-adv-x="701" 
d="M384 160l199 662h160l-276 -822h-168l-141 406h-158v122h284z" />
    <glyph glyph-name="infinity" unicode="&#x221e;" horiz-adv-x="589" 
d="M119 329q0 -20 12.5 -32.5t30.5 -12.5q12 0 23.5 5.5t22 13t18 15t10.5 11.5q-3 4 -10.5 11.5t-18 15t-22 13t-23.5 5.5q-18 0 -30.5 -12.5t-12.5 -32.5zM349 329q3 -4 10.5 -11.5t17.5 -15t22 -13t25 -5.5q18 0 30.5 12.5t12.5 32.5t-12.5 32.5t-30.5 12.5
q-12 0 -24.5 -5.5t-22.5 -13t-17.5 -15t-10.5 -11.5zM9 328q0 32 12 59t32 46t46.5 29.5t56.5 10.5q34 0 61 -11t46 -24q22 -16 38 -35q19 19 41 35q19 13 44.5 24t54.5 11t54.5 -10.5t44 -29.5t29.5 -45.5t11 -58.5q0 -33 -11.5 -59.5t-32 -45.5t-47.5 -29.5t-57 -10.5
q-35 0 -61.5 10.5t-45.5 24.5q-22 15 -38 35q-19 -20 -41 -35q-19 -14 -44.5 -24.5t-54.5 -10.5t-54.5 10.5t-44 29.5t-29 45.5t-10.5 58.5z" />
    <glyph glyph-name="integral" unicode="&#x222b;" horiz-adv-x="575" 
d="M518 617q-10 2 -23.5 5t-27.5 3q-16 0 -26 -4.5t-16 -13.5t-9.5 -22.5t-6.5 -32.5l-93 -590q-6 -39 -18 -71.5t-32 -56.5t-49.5 -37.5t-70.5 -13.5q-51 0 -83 6t-47 10l26 99q10 -2 23 -5t28 -3q31 0 41 18t16 56l95 602q6 35 17 67t32 56t53 38.5t79 14.5
q42 0 72.5 -5.5t47.5 -9.5z" />
    <glyph glyph-name="approxequal" unicode="&#x2248;" horiz-adv-x="589" 
d="M531 254q-19 -24 -36.5 -45t-36 -37t-39.5 -25t-46 -9q-24 0 -46.5 8.5t-44 18.5t-41 18.5t-35.5 8.5q-23 0 -43 -15.5t-37 -35.5l-68 49q19 24 36.5 45t36 37t39 25t46.5 9q22 0 44.5 -8.5t43.5 -19t40.5 -19t37.5 -8.5q23 0 43.5 16.5t37.5 36.5zM531 469
q-19 -24 -36.5 -45t-36 -37t-39.5 -25t-46 -9q-24 0 -46.5 8.5t-44 18.5t-41 18.5t-35.5 8.5q-23 0 -43 -15.5t-37 -35.5l-68 49q19 24 36.5 45t36 37t39 25t46.5 9q22 0 44.5 -8.5t43.5 -19t40.5 -19t37.5 -8.5q23 0 43.5 16.5t37.5 36.5z" />
    <glyph glyph-name="notequal" unicode="&#x2260;" horiz-adv-x="550" 
d="M399 496h91v-117h-132l-36 -97h168v-117h-207l-34 -95h-131l34 95h-92v117h133l36 97h-169v117h208l29 82h132z" />
    <glyph glyph-name="lessequal" unicode="&#x2264;" horiz-adv-x="589" 
d="M73 354v89l442 183v-123l-253 -104l253 -106v-123zM73 12v119h442v-119h-442z" />
    <glyph glyph-name="greaterequal" unicode="&#x2265;" horiz-adv-x="589" 
d="M73 170v123l253 104l-253 106v123l442 -184v-89zM73 12v119h442v-119h-442z" />
    <glyph glyph-name="lozenge" unicode="&#x25ca;" horiz-adv-x="575" 
d="M35 332l190 335h125l189 -333l-190 -334h-125zM287 133l110 199l-110 201l-110 -199z" />
    <glyph glyph-name="uniE000" unicode="&#xe000;" horiz-adv-x="579" 
d="M546 334q0 -98 -16 -164.5t-48.5 -106.5t-80.5 -57t-111 -17t-111 17t-80.5 57t-48.5 106.5t-16 164.5t16 164t48.5 106t80.5 57t111 17t111 -17t80.5 -57t48.5 -106t16 -164zM373 334q0 61 -3.5 106t-12.5 75t-25 44.5t-42 14.5t-42.5 -14.5t-25.5 -44t-12.5 -74.5
t-3.5 -107q0 -61 3.5 -106.5t12.5 -75.5t25.5 -44.5t42.5 -14.5t42 14.5t25 44t12.5 75t3.5 107.5z" />
    <glyph glyph-name="uniE001" unicode="&#xe001;" horiz-adv-x="389" 
d="M165 0v498l-108 -75l-71 101l208 143h140v-667h-169z" />
    <glyph glyph-name="uniE002" unicode="&#xe002;" horiz-adv-x="483" 
d="M10 0v99q37 40 82.5 85.5t86 92.5t68 94.5t27.5 90.5q0 48 -23.5 70.5t-67.5 22.5q-35 0 -72.5 -11.5t-60.5 -22.5l-44 103q16 8 39 17.5t51 17.5t59 13.5t64 5.5q109 0 168.5 -46.5t59.5 -134.5q0 -53 -21 -100.5t-55.5 -92.5t-77.5 -88t-88 -85h249v-131h-444z" />
    <glyph glyph-name="uniE003" unicode="&#xe003;" horiz-adv-x="518" 
d="M479 190q0 -54 -19 -92.5t-52.5 -62.5t-80.5 -35t-103 -11q-76 0 -129.5 11t-92.5 29l39 107q29 -14 67.5 -22.5t82.5 -8.5q24 0 45 4t36.5 14.5t24.5 29t9 47.5q0 30 -9.5 48t-30.5 27t-53.5 12t-77.5 3v105q45 0 75 4.5t48.5 15.5t26 29t7.5 46q0 22 -8.5 36t-22.5 22
t-31.5 11t-34.5 3q-20 0 -41 -3.5t-40 -8.5t-34.5 -11t-24.5 -10l-38 102q32 17 88.5 32t128.5 15q51 0 93.5 -10t73 -31t47.5 -53.5t17 -77.5q0 -34 -9.5 -59.5t-25 -44.5t-36 -32t-41.5 -21q27 -6 50 -18.5t40 -32t26.5 -46t9.5 -62.5z" />
    <glyph glyph-name="uniE004" unicode="&#xe004;" horiz-adv-x="555" 
d="M483 92v-92h-166v92h-291l-7 100l206 501l143 -70l-178 -416h131v127h162v-129h71v-113h-71z" />
    <glyph glyph-name="uniE005" unicode="&#xe005;" horiz-adv-x="537" 
d="M502 211q0 -61 -20 -103.5t-55.5 -68.5t-83.5 -38t-105 -12q-74 1 -127 13.5t-87 28.5l40 109q26 -13 64.5 -24t80.5 -11q24 0 45.5 4.5t38 16t26.5 32.5t10 54q0 55 -29 84t-77 29q-32 0 -61 -11t-40 -19l-72 22l40 350h386l-22 -123h-240l-13 -130q19 10 39.5 15
t51.5 5q47 0 85.5 -13.5t66.5 -41t43 -69.5t15 -99z" />
    <glyph glyph-name="uniE006" unicode="&#xe006;" horiz-adv-x="562" 
d="M534 223q0 -58 -20 -102t-54 -73.5t-78.5 -44t-94.5 -14.5q-49 0 -95 12.5t-81.5 43.5t-57 83.5t-21.5 131.5q0 71 27 135.5t75 120t114 100t144 75.5l53 -108q-24 -10 -51 -25.5t-53.5 -35t-50.5 -44.5t-42 -55q18 5 40 10.5t48 5.5q45 0 81.5 -17.5t62.5 -47t40 -68.5
t14 -83zM361 223q0 65 -21.5 95.5t-56.5 30.5t-57 -30.5t-22 -95.5t24 -97.5t59 -32.5t54.5 32.5t19.5 97.5z" />
    <glyph glyph-name="uniE007" unicode="&#xe007;" horiz-adv-x="487" 
d="M206 0h-180q11 21 28 55.5t37.5 76.5t43 89t44.5 93q51 107 109 230h-274l-22 123h475v-108z" />
    <glyph glyph-name="uniE008" unicode="&#xe008;" horiz-adv-x="581" 
d="M543 183q0 -48 -18.5 -84t-52.5 -60.5t-81.5 -37t-104.5 -12.5q-116 0 -183 48.5t-67 145.5q0 62 34.5 102t85.5 68q-46 26 -73.5 59.5t-27.5 87.5q0 48 19.5 82t52.5 55t76 31t90 10t89 -9t73.5 -30t50 -54.5t18.5 -82.5q0 -53 -27 -90.5t-72 -63.5q26 -13 47.5 -29
t37 -35.5t24.5 -44t9 -56.5zM362 500q0 35 -19.5 54t-51.5 19q-31 0 -49 -19t-18 -52q0 -40 23 -64t54 -35q9 6 19.5 14t20 20t15.5 27.5t6 35.5zM371 179q0 25 -9 43t-23 31t-31 22t-33 15q-13 -7 -26 -16.5t-23.5 -23t-17 -31t-6.5 -40.5q0 -42 24.5 -64t61.5 -22t60 22
t23 64z" />
    <glyph glyph-name="uniE009" unicode="&#xe009;" horiz-adv-x="562" 
d="M528 407q0 -70 -26.5 -135t-74.5 -120.5t-114 -100t-144 -75.5l-54 108q24 11 51 26t53.5 34.5t50.5 44.5t42 55q-17 -5 -38 -10.5t-45 -5.5q-46 0 -83 16.5t-63.5 46t-41 69t-14.5 84.5q0 59 20 102.5t53.5 73t78.5 44t94 14.5t95 -12.5t81.5 -43.5t57 -83.5
t21.5 -131.5zM356 444q0 65 -24 97.5t-59 32.5t-54.5 -32.5t-19.5 -97.5t21.5 -95.5t56.5 -30.5t57 30.5t22 95.5z" />
    <glyph glyph-name="uniE00A" unicode="&#xe00a;" horiz-adv-x="375" 
d="M349 348q0 -39 -13.5 -66.5t-38 -45t-58.5 -25t-76 -7.5q-56 0 -95 8t-67 19l30 86q20 -8 47.5 -14t56.5 -6q16 0 31 2t25.5 8.5t17 18t6.5 30.5q0 21 -7.5 33t-22.5 18t-38 8t-53 2v79q32 0 53.5 3t34 10t18 19.5t5.5 31.5q0 14 -6 22.5t-16 13t-21.5 6t-23.5 1.5
q-11 0 -24.5 -1.5t-27 -4.5t-25.5 -7t-21 -8l-28 82q23 11 64 21.5t95 10.5q37 0 68 -7t53 -22t34.5 -38t12.5 -56q0 -24 -6.5 -42.5t-17.5 -32t-25 -22.5t-28 -15q36 -10 61.5 -35t25.5 -78z" />
    <glyph glyph-name="uniE00B" unicode="&#xe00b;" horiz-adv-x="420" 
d="M395 344q0 -71 -52 -105.5t-137 -34.5q-84 0 -132.5 34.5t-48.5 105.5q0 40 20.5 68.5t61.5 51.5q-35 20 -52 44.5t-17 58.5q0 36 14.5 60.5t38.5 39.5t55.5 22t66.5 7t65.5 -6.5t53.5 -21.5t36.5 -39.5t13.5 -60.5q0 -68 -69 -108q41 -22 61.5 -49t20.5 -67zM256 566
q0 24 -12.5 37t-32.5 13t-31 -13t-11 -35q0 -26 15 -42t35 -24q14 9 25.5 24t11.5 40zM260 341q0 31 -17 47.5t-45 27.5q-20 -12 -32.5 -29.5t-12.5 -45.5q0 -29 16 -43.5t39 -14.5q24 0 38 15t14 43z" />
    <glyph glyph-name="uniE00C" unicode="&#xe00c;" horiz-adv-x="406" 
d="M384 501q0 -50 -19.5 -95.5t-54.5 -85.5t-83.5 -72t-105.5 -55l-41 84q33 14 71 39.5t64 63.5q-12 -3 -26 -5.5t-29 -2.5q-30 0 -56 11.5t-45 32.5t-30 49.5t-11 62.5q0 42 14.5 73.5t39 52.5t57.5 31.5t69 10.5t69.5 -9t59.5 -31.5t41.5 -60t15.5 -94.5zM251 528
q0 44 -15 66t-38 22q-46 0 -46 -88q0 -45 13.5 -65t36.5 -20q21 0 35 20t14 65z" />
    <glyph glyph-name="uniE00D" unicode="&#xe00d;" horiz-adv-x="416" 
d="M395 450q0 -72 -12 -119.5t-35.5 -75.5t-58.5 -39.5t-81 -11.5t-80.5 11.5t-58 39.5t-35.5 75.5t-12 119.5t12 119t35.5 75.5t58 40t80.5 11.5t81 -11.5t58.5 -40t35.5 -75.5t12 -119zM260 450q0 87 -9 126.5t-43 39.5q-33 0 -42.5 -39.5t-9.5 -126.5q0 -88 9.5 -127.5
t42.5 -39.5q34 0 43 39.5t9 127.5z" />
    <glyph glyph-name="uniE00E" unicode="&#xe00e;" horiz-adv-x="284" 
d="M116 212v341l-73 -51l-53 77l161 109h97v-476h-132z" />
    <glyph glyph-name="uniE00F" unicode="&#xe00f;" horiz-adv-x="404" 
d="M360 274v-63h-126v63h-216l-5 78l143 354l112 -54l-123 -289h92v86h123v-88h41v-87h-41z" />
    <glyph glyph-name="uniE010" unicode="&#xe010;" horiz-adv-x="388" 
d="M364 362q0 -43 -14.5 -73.5t-40.5 -49t-61 -27t-77 -8.5q-54 0 -92 8.5t-63 19.5l30 87q19 -8 46 -15t56 -7q16 0 30.5 2.5t26 10t18 20t6.5 33.5q0 39 -20 57t-51 18q-25 0 -42 -6.5t-26 -11.5l-55 16l29 252h282l-17 -96h-169l-8 -83q13 6 26.5 9t34.5 3
q69 0 110 -38.5t41 -120.5z" />
    <glyph glyph-name="uniE011" unicode="&#xe011;" horiz-adv-x="354" 
d="M155 212h-138l183 380h-190l-16 96h346v-83z" />
    <glyph glyph-name="uniE012" unicode="&#xe012;" horiz-adv-x="349" 
d="M7 212v75q26 28 58 59.5t59.5 65t46.5 67.5t19 67q0 29 -17.5 41t-48.5 12q-23 0 -47.5 -6.5t-40.5 -14.5l-33 79q12 6 28 12.5t36 12.5t43 10t47 4q81 0 124.5 -34.5t43.5 -97.5q0 -37 -14 -70t-36.5 -63t-52.5 -59t-61 -58h170v-102h-324z" />
    <glyph glyph-name="uniE013" unicode="&#xe013;" horiz-adv-x="406" 
d="M387 372q0 -42 -14.5 -73.5t-39 -52.5t-57.5 -31.5t-69 -10.5t-69.5 9t-59.5 31.5t-41.5 59.5t-15.5 94q0 50 19.5 96t54.5 85.5t83 71.5t105 55l42 -84q-33 -14 -71 -39.5t-64 -63.5q5 2 19.5 4.5t33.5 2.5q30 0 56.5 -11.5t46 -31.5t30.5 -48.5t11 -62.5zM252 372
q0 45 -13 65t-35 20t-36 -20t-14 -65t15.5 -67t37.5 -22q21 0 33 22t12 67z" />
    <glyph glyph-name="uniE014" unicode="&#xe014;" horiz-adv-x="375" 
d="M349 136q0 -39 -13.5 -66.5t-38 -45t-58.5 -25t-76 -7.5q-56 0 -95 8t-67 20l30 85q20 -8 47.5 -13.5t56.5 -5.5q17 0 31.5 2t25 8t17 17.5t6.5 30.5q0 21 -7.5 33.5t-22.5 18.5t-38 7.5t-53 1.5v79q32 1 53.5 4t34 10t18 19t5.5 31q0 14 -6 22.5t-16 13t-21.5 6
t-23.5 1.5q-11 0 -24.5 -1.5t-27 -4.5t-25.5 -6.5t-21 -8.5l-28 82q23 11 64 21.5t95 10.5q37 0 68 -7t53 -22t34.5 -38t12.5 -56q0 -24 -6.5 -42.5t-17.5 -31.5t-25 -22.5t-28 -15.5q36 -9 61.5 -34.5t25.5 -78.5z" />
    <glyph glyph-name="uniE015" unicode="&#xe015;" horiz-adv-x="420" 
d="M395 132q0 -70 -52 -105t-137 -35q-84 0 -132.5 34.5t-48.5 105.5q0 40 20.5 68.5t61.5 51.5q-35 21 -52 45t-17 59q0 36 14.5 60.5t38.5 39.5t55.5 21.5t66.5 6.5t65.5 -6.5t53.5 -21.5t36.5 -39.5t13.5 -60.5q0 -67 -69 -108q41 -22 61.5 -49t20.5 -67zM256 355
q0 23 -12.5 36t-32.5 13t-31 -12.5t-11 -34.5q0 -27 15 -43t35 -24q14 9 25.5 24t11.5 41zM260 129q0 31 -17 47.5t-45 27.5q-20 -12 -32.5 -29t-12.5 -46q0 -28 16 -43t39 -15q24 0 38 15t14 43z" />
    <glyph glyph-name="uniE016" unicode="&#xe016;" horiz-adv-x="406" 
d="M384 289q0 -50 -19.5 -95.5t-54.5 -85.5t-83.5 -72t-105.5 -55l-41 84q33 14 71 39.5t64 63.5q-12 -3 -26 -5.5t-29 -2.5q-30 0 -56 11.5t-45 32.5t-30 49.5t-11 62.5q0 42 14.5 73.5t39 52.5t57.5 31.5t69 10.5t69.5 -9t59.5 -31.5t41.5 -60t15.5 -94.5zM251 316
q0 44 -15 66t-38 22q-46 0 -46 -88q0 -45 13.5 -65t36.5 -20q21 0 35 20t14 65z" />
    <glyph glyph-name="uniE017" unicode="&#xe017;" horiz-adv-x="416" 
d="M395 238q0 -72 -12 -119t-35.5 -75.5t-58.5 -40t-81 -11.5t-80.5 11.5t-58 40t-35.5 75.5t-12 119t12 119t35.5 75.5t58 40t80.5 11.5t81 -11.5t58.5 -40t35.5 -75.5t12 -119zM260 238q0 87 -9 126.5t-43 39.5q-33 0 -42.5 -39.5t-9.5 -126.5q0 -88 9.5 -127.5
t42.5 -39.5q34 0 43 39.5t9 127.5z" />
    <glyph glyph-name="uniE018" unicode="&#xe018;" horiz-adv-x="284" 
d="M116 0v341l-73 -50l-53 76l161 109h97v-476h-132z" />
    <glyph glyph-name="uniE019" unicode="&#xe019;" horiz-adv-x="404" 
d="M360 63v-64h-126v64h-216l-5 77l143 355l112 -54l-123 -290h92v86h123v-88h41v-86h-41z" />
    <glyph glyph-name="uniE01A" unicode="&#xe01a;" horiz-adv-x="388" 
d="M364 150q0 -43 -14.5 -73.5t-40.5 -49t-61 -27t-77 -8.5q-54 0 -92 9t-63 20l30 86q19 -8 46 -15t56 -7q16 0 30.5 2.5t26 10t18 20t6.5 33.5q0 39 -20 57t-51 18q-25 0 -42 -6t-26 -12l-55 16l29 252h282l-17 -95h-169l-8 -84q13 6 26.5 9.5t34.5 3.5q69 0 110 -39
t41 -121z" />
    <glyph glyph-name="uniE01B" unicode="&#xe01b;" horiz-adv-x="354" 
d="M155 0h-138l183 381h-190l-16 95h346v-83z" />
    <glyph glyph-name="uniE01C" unicode="&#xe01c;" horiz-adv-x="349" 
d="M7 0v76q26 28 58 59.5t60 64.5t46.5 67t18.5 67q0 29 -17.5 41t-48.5 12q-23 0 -47.5 -6.5t-40.5 -14.5l-33 79q12 6 28 12.5t36 12.5t43 10t47 4q81 0 124.5 -34t43.5 -98q0 -37 -14 -69.5t-36.5 -62.5t-52 -59t-61.5 -59h170v-102h-324z" />
    <glyph glyph-name="uniE01D" unicode="&#xe01d;" horiz-adv-x="406" 
d="M387 160q0 -42 -14.5 -73.5t-39 -52.5t-57.5 -31.5t-69 -10.5t-69.5 9t-59.5 31.5t-41.5 59.5t-15.5 94q0 50 19.5 96t54.5 85.5t83 71.5t105 55l42 -84q-33 -14 -71 -39.5t-64 -63.5q5 2 19.5 4.5t33.5 2.5q30 0 56.5 -11.5t46 -31.5t30.5 -48.5t11 -62.5zM252 160
q0 45 -13 65t-35 20t-36 -20t-14 -65t15.5 -67t37.5 -22q21 0 33 22t12 67z" />
    <glyph glyph-name="uniE01E" unicode="&#xe01e;" horiz-adv-x="622" 
d="M496 309l-114 120v-429h-142v429l-113 -120l-94 94l278 275l279 -275z" />
    <glyph glyph-name="uniE01F" unicode="&#xe01f;" horiz-adv-x="750" 
d="M284 276l123 -117l-97 -97l-275 282l275 282l97 -97l-123 -117h415v-136h-415z" />
    <glyph glyph-name="uniE020" unicode="&#xe020;" horiz-adv-x="750" 
d="M440 62l-97 97l123 117h-415v136h415l-123 117l97 97l275 -282z" />
    <glyph glyph-name="uniE021" unicode="&#xe021;" horiz-adv-x="622" 
d="M311 -11l-278 275l94 94l114 -120v429h141v-429l114 120l94 -94z" />
    <glyph glyph-name="uniE022" unicode="&#xe022;" horiz-adv-x="589" 
d="M436 96l-142 141l-141 -141l-87 86l142 142l-142 142l87 86l141 -142l142 142l87 -86l-142 -142l142 -142z" />
    <glyph glyph-name="uniE023" unicode="&#xe023;" horiz-adv-x="589" 
d="M364 270v-181h-139v181h-172v121h172v181h139v-181h172v-121h-172z" />
    <glyph glyph-name="uniE024" unicode="&#xe024;" horiz-adv-x="589" 
d="M379 97v173h-322v122h462v-295h-140z" />
    <glyph glyph-name="uniE025" unicode="&#xe025;" horiz-adv-x="589" 
d="M362 349v-155h-136v155h-153v119h153v155h136v-155h153v-119h-153zM73 12v119h442v-119h-442z" />
    <glyph glyph-name="uniE026" unicode="&#xe026;" horiz-adv-x="589" 
d="M388 539q0 -20 -7.5 -37.5t-20 -30t-29.5 -20t-37 -7.5q-19 0 -36.5 7.5t-30.5 20t-20.5 30t-7.5 37.5t7.5 37.5t20.5 30t30.5 20t36.5 7.5q20 0 37 -7.5t29.5 -20t20 -30t7.5 -37.5zM64 271v119h461v-119h-461zM388 122q0 -20 -7.5 -37.5t-20 -30t-29.5 -20t-37 -7.5
q-19 0 -36.5 7.5t-30.5 20t-20.5 30t-7.5 37.5t7.5 37t20.5 30t30.5 20t36.5 7q39 0 66.5 -27t27.5 -67z" />
    <glyph glyph-name="uniE027" unicode="&#xe027;" horiz-adv-x="627" 
d="M589 271q0 -57 -21.5 -107t-59 -87.5t-87.5 -59.5t-107 -22q-36 0 -69 8.5t-63 24.5l-55 -68l-78 60l56 70q-32 36 -49.5 82t-17.5 99q0 57 22 107t59.5 87.5t87.5 59t107 21.5q72 0 132 -34l56 68l76 -61l-56 -69q32 -37 49.5 -82.5t17.5 -96.5zM471 271q0 23 -7.5 44
t-19.5 38l-183 -228q25 -11 53 -11q32 0 60.5 12.5t50 33.5t34 49.5t12.5 61.5zM369 415q-25 13 -55 13q-33 0 -61.5 -12.5t-49.5 -34t-33.5 -50t-12.5 -60.5q0 -49 27 -84z" />
    <glyph glyph-name="uniE028" unicode="&#xe028;" horiz-adv-x="548" 
d="M79 267v129h420v-129h-420zM227 72q0 -31 -14.5 -62t-32.5 -63q-9 -16 -22.5 -36t-26.5 -39q-15 -22 -31 -44l-71 43q8 12 16 26t15 28.5t11.5 29t4.5 26.5q0 13 -6 23t-11 21q-6 11 -11 25t-5 34q0 39 26.5 63.5t62.5 24.5q45 0 70 -28.5t25 -71.5z" />
    <glyph glyph-name="uniE029" unicode="&#xe029;" horiz-adv-x="548" 
d="M49 267v129h420v-129h-420zM511 72q0 -31 -14.5 -62t-33.5 -63q-8 -16 -21.5 -36t-26.5 -39q-15 -22 -31 -44l-71 43q8 12 16 26t15 28.5t11.5 29t4.5 26.5q0 13 -6 23t-11 21q-6 11 -11.5 25t-5.5 34q0 39 27 63.5t63 24.5q45 0 70 -28.5t25 -71.5z" />
    <glyph glyph-name="uniE02A" unicode="&#xe02a;" horiz-adv-x="546" 
d="M499 204q0 -81 -43 -129t-134 -62v-83h-113v78q-55 2 -99 10.5t-74 19.5l20 115q30 -10 70.5 -19.5t75.5 -9.5q42 0 71 15t29 51q0 22 -19.5 40t-48 35t-62.5 35.5t-62.5 42t-48 55t-19.5 74.5q0 75 43 122t124 58v76h113v-71q45 -3 81 -9.5t68 -14.5l-21 -113
q-27 8 -62 15t-72 7q-39 0 -64 -15t-25 -44q0 -23 20 -40.5t50.5 -34t65.5 -34.5t65.5 -41.5t50.5 -54.5t20 -74z" />
    <glyph glyph-name="uniE02B" unicode="&#xe02b;" horiz-adv-x="546" 
d="M531 23q-26 -12 -71 -23t-97 -11q-108 0 -178 60.5t-84 184.5h-77l16 70h57q-1 9 -1 15v15v13t1 13h-73l17 70h59q15 127 85 187.5t179 60.5q48 0 91 -9.5t71 -19.5l-31 -106q-22 8 -46 14t-64 6q-45 0 -73 -36.5t-36 -96.5h186l-15 -70h-177q-1 -8 -1 -13v-13v-15t1 -15
h168l-15 -70h-146q5 -58 33 -93.5t78 -35.5q38 0 64 8t47 16z" />
    <glyph glyph-name="uniE02C" unicode="&#xe02c;" horiz-adv-x="453" 
d="M437 116q-23 -10 -54 -19t-71 -12v-85h-110v89q-80 14 -124 73t-44 175q0 113 44 171.5t124 73.5v85h110v-81q34 -2 64.5 -10t52.5 -17l-34 -96q-19 7 -42.5 12.5t-46.5 5.5q-26 0 -44.5 -6.5t-30.5 -23t-18 -44.5t-6 -70q0 -75 21 -108.5t74 -33.5q26 0 52.5 5.5
t49.5 13.5z" />
    <glyph glyph-name="uniE02D" unicode="&#xe02d;" horiz-adv-x="573" 
d="M537 638q-8 -26 -16.5 -52t-16.5 -52q-26 11 -64.5 20t-78.5 9q-46 0 -68.5 -20t-22.5 -66q0 -21 2.5 -46.5t4.5 -44.5h148v-87h-135q2 -11 3.5 -27.5t1.5 -33.5q0 -37 -8 -68t-26 -54h280v-116h-474v85q30 28 44 61t14 86q0 22 -1 37.5t-3 29.5h-72v87h58q-2 10 -3 23.5
t-2.5 28t-2 28.5t-0.5 24q0 96 58 142.5t168 46.5q75 0 127.5 -13.5t84.5 -27.5z" />
    <glyph glyph-name="uniE02E" unicode="&#xe02e;" horiz-adv-x="606" 
d="M454 394h89v-70h-123l-26 -56h149v-71h-155v-197h-171v197h-154v71h148l-25 56h-123v70h87l-132 273h187l104 -284l104 284h175z" />
    <glyph glyph-name="uniE02F" unicode="&#xe02f;" horiz-adv-x="589" 
d="M548 627q-10 2 -23.5 5t-28.5 3q-31 0 -41 -18t-16 -56l-5 -33h95l-17 -99h-93l-80 -501q-11 -70 -50 -108t-115 -38q-51 0 -80 5.5t-50 10.5l26 99q10 -2 23 -5t28 -3q31 0 40.5 18t15.5 56l75 466h-56l-8 99h79l11 69q11 70 49.5 107.5t115.5 37.5q51 0 80 -5.5
t50 -10.5z" />
    <glyph glyph-name="uniE030" unicode="&#xe030;" horiz-adv-x="811" 
d="M751 333q0 -72 -27 -134.5t-74 -109.5t-109.5 -74t-134.5 -27t-135 27t-110 74t-74 109.5t-27 134.5t27 135t74 110t110 74t135 27t134.5 -27t109.5 -74t74 -110t27 -135zM665 333q0 54 -20 101.5t-55.5 82.5t-82.5 55.5t-101 20.5t-101.5 -20.5t-82.5 -55.5t-55.5 -82.5
t-20.5 -101.5t20.5 -101t55.5 -82.5t82.5 -55.5t101.5 -20t101 20t82.5 55.5t55.5 82.5t20 101zM454 151l-74 145h-10v-145h-94v371h112q78 0 119 -25t41 -89q0 -19 -7.5 -35.5t-19 -30t-26 -23t-28.5 -12.5l100 -156h-113zM447 407q0 25 -12.5 35.5t-51.5 10.5h-13v-97h13
q40 0 52 14t12 37z" />
    <glyph glyph-name="uniE031" unicode="&#xe031;" horiz-adv-x="668" 
d="M354 427q14 0 29 3.5t25 7.5l18 -49q-15 -7 -33 -12.5t-43 -5.5q-63 0 -94 35t-31 111t31.5 112t91.5 36q25 0 41.5 -5t31.5 -11l-16 -50q-9 3 -23 6.5t-28 3.5q-29 0 -44.5 -20.5t-15.5 -71.5q0 -48 15.5 -69t44.5 -21zM601 515q0 -55 -21 -103.5t-57 -85t-84.5 -57.5
t-103.5 -21t-104 21t-85.5 57.5t-57.5 85t-21 103.5t21 103.5t57.5 85t85.5 57.5t104 21t103.5 -21t84.5 -57.5t57 -85t21 -103.5zM537 515q0 42 -16 79t-43 64.5t-64 43.5t-79 16t-79.5 -16t-65 -43.5t-43.5 -64.5t-16 -79t16 -79t43.5 -64.5t65 -43.5t79.5 -16t79 16
t64 43.5t43 64.5t16 79z" />
    <glyph glyph-name="uni0162" unicode="&#xe032;" horiz-adv-x="492" 
d="M369 -127q0 -51 -38.5 -77t-103.5 -26q-23 0 -49.5 4t-40.5 9l20 62q11 -4 26 -7t32 -3q24 0 37.5 9t13.5 29q0 29 -50 29q-12 0 -24 -1t-17 -3l28 102h-42v530h-139l-17 137h483l-18 -137h-139v-530h-67l-9 -42q4 1 9.5 2t14.5 1q39 0 64.5 -21.5t25.5 -66.5z" />
    <glyph glyph-name="uni0163" unicode="&#xe033;" horiz-adv-x="353" 
d="M299 -127q0 -51 -38.5 -77t-103.5 -26q-23 0 -49.5 4t-40.5 9l20 62q11 -4 26 -7t32 -3q24 0 37.5 9t13.5 29q0 29 -50 29q-12 0 -24 -1t-17 -3l29 105q-35 15 -50 48t-15 88v290h-63l-8 99h75l2 125h161v-125h100l-14 -99h-86v-260q0 -31 7 -46.5t30 -15.5
q16 0 27.5 3.5t19.5 5.5l25 -99q-23 -10 -53.5 -18.5t-76.5 -8.5h-12t-11 1l-7 -33q4 1 9.5 2t14.5 1q39 0 64.5 -21.5t25.5 -66.5z" />
    <glyph glyph-name="fi" unicode="&#xf001;" horiz-adv-x="578" 
d="M538 684q0 -40 -27.5 -67t-66.5 -27q-20 0 -37 7t-30 20t-20.5 30t-7.5 37t7.5 37.5t20.5 30t30 20t37 7.5q19 0 36.5 -7.5t30 -20t20 -30t7.5 -37.5zM360 0v429h-123v-429h-167v429h-64l-7 99h71v69q0 68 31.5 106.5t108.5 38.5q45 0 74 -5.5t41 -8.5l-11 -104
q-8 2 -17.5 4t-20.5 2q-29 0 -34 -17t-5 -55v-30h290v-528h-167z" />
    <glyph glyph-name="fi" unicode="&#xfb01;" horiz-adv-x="578" 
d="M538 684q0 -40 -27.5 -67t-66.5 -27q-20 0 -37 7t-30 20t-20.5 30t-7.5 37t7.5 37.5t20.5 30t30 20t37 7.5q19 0 36.5 -7.5t30 -20t20 -30t7.5 -37.5zM360 0v429h-123v-429h-167v429h-64l-7 99h71v69q0 68 31.5 106.5t108.5 38.5q45 0 74 -5.5t41 -8.5l-11 -104
q-8 2 -17.5 4t-20.5 2q-29 0 -34 -17t-5 -55v-30h290v-528h-167z" />
    <glyph glyph-name="fl" unicode="&#xf002;" horiz-adv-x="578" 
d="M360 0v625q-17 2 -36 3.5t-42 1.5q-16 0 -25 -3.5t-13.5 -12.5t-5.5 -23t-1 -35v-28h75l-13 -99h-62v-429h-167v429h-64l-7 99h71v69q0 78 35 111.5t116 33.5q35 0 74.5 -2.5t79.5 -6t79 -6.5t73 -4v-723h-167z" />
    <glyph glyph-name="fl" unicode="&#xfb02;" horiz-adv-x="578" 
d="M360 0v625q-17 2 -36 3.5t-42 1.5q-16 0 -25 -3.5t-13.5 -12.5t-5.5 -23t-1 -35v-28h75l-13 -99h-62v-429h-167v429h-64l-7 99h71v69q0 78 35 111.5t116 33.5q35 0 74.5 -2.5t79.5 -6t79 -6.5t73 -4v-723h-167z" />
    <glyph glyph-name="commaaccent" unicode="&#xf6c3;" horiz-adv-x="531" 
d="M338 -106q0 -22 -10 -44t-24 -45q-14 -22 -29.5 -43t-30.5 -42l-52 29q11 17 24 40t13 40q0 8 -4 15.5t-9 16t-9 18.5t-4 23q0 27 20 44.5t46 17.5q32 0 50.5 -20t18.5 -50z" />
    </font>
</defs>
</svg>
